  0
SECTION
  2
HEADER
  9
$ACADVER
  1
AC1015
  9
$ACADMAINTVER
 70
    20
  9
$DWGCODEPAGE
  3
ANSI_1252
  9
$INSBASE
 10
0.0
 20
0.0
 30
0.0
  9
$EXTMIN
 10
-0.0043892171399307
 20
-0.0043602348891909
 30
-0.0015258207003583
  9
$EXTMAX
 10
50.00358218737585
 20
87.0979768917474
 30
0.0000000349246037
  9
$LIMMIN
 10
0.0
 20
0.0
  9
$LIMMAX
 10
12.0
 20
9.0
  9
$ORTHOMODE
 70
     1
  9
$REGENMODE
 70
     1
  9
$FILLMODE
 70
     1
  9
$QTEXTMODE
 70
     0
  9
$MIRRTEXT
 70
     0
  9
$LTSCALE
 40
1.0
  9
$ATTMODE
 70
     1
  9
$TEXTSIZE
 40
0.2
  9
$TRACEWID
 40
0.05
  9
$TEXTSTYLE
  7
Standard
  9
$CLAYER
  8
P-0000
  9
$CELTYPE
  6
Continuous
  9
$CECOLOR
 62
     2
  9
$CELTSCALE
 40
1.0
  9
$DISPSILH
 70
     0
  9
$DIMSCALE
 40
1.0
  9
$DIMASZ
 40
2.5
  9
$DIMEXO
 40
0.625
  9
$DIMDLI
 40
3.75
  9
$DIMRND
 40
0.0
  9
$DIMDLE
 40
0.0
  9
$DIMEXE
 40
1.25
  9
$DIMTP
 40
0.0
  9
$DIMTM
 40
0.0
  9
$DIMTXT
 40
2.5
  9
$DIMCEN
 40
2.5
  9
$DIMTSZ
 40
0.0
  9
$DIMTOL
 70
     0
  9
$DIMLIM
 70
     0
  9
$DIMTIH
 70
     0
  9
$DIMTOH
 70
     0
  9
$DIMSE1
 70
     0
  9
$DIMSE2
 70
     0
  9
$DIMTAD
 70
     1
  9
$DIMZIN
 70
     8
  9
$DIMBLK
  1

  9
$DIMASO
 70
     1
  9
$DIMSHO
 70
     1
  9
$DIMPOST
  1

  9
$DIMAPOST
  1

  9
$DIMALT
 70
     0
  9
$DIMALTD
 70
     3
  9
$DIMALTF
 40
0.03937007874016
  9
$DIMLFAC
 40
1.0
  9
$DIMTOFL
 70
     1
  9
$DIMTVP
 40
0.0
  9
$DIMTIX
 70
     0
  9
$DIMSOXD
 70
     0
  9
$DIMSAH
 70
     0
  9
$DIMBLK1
  1

  9
$DIMBLK2
  1

  9
$DIMSTYLE
  2
ISO-25
  9
$DIMCLRD
 70
     0
  9
$DIMCLRE
 70
     0
  9
$DIMCLRT
 70
     0
  9
$DIMTFAC
 40
1.0
  9
$DIMGAP
 40
0.625
  9
$DIMJUST
 70
     0
  9
$DIMSD1
 70
     0
  9
$DIMSD2
 70
     0
  9
$DIMTOLJ
 70
     0
  9
$DIMTZIN
 70
     8
  9
$DIMALTZ
 70
     0
  9
$DIMALTTZ
 70
     0
  9
$DIMUPT
 70
     0
  9
$DIMDEC
 70
     2
  9
$DIMTDEC
 70
     2
  9
$DIMALTU
 70
     2
  9
$DIMALTTD
 70
     3
  9
$DIMTXSTY
  7
Standard
  9
$DIMAUNIT
 70
     0
  9
$DIMADEC
 70
     0
  9
$DIMALTRND
 40
0.0
  9
$DIMAZIN
 70
     0
  9
$DIMDSEP
 70
    44
  9
$DIMATFIT
 70
     3
  9
$DIMFRAC
 70
     0
  9
$DIMLDRBLK
  1

  9
$DIMLUNIT
 70
     2
  9
$DIMLWD
 70
    -2
  9
$DIMLWE
 70
    -2
  9
$DIMTMOVE
 70
     0
  9
$LUNITS
 70
     2
  9
$LUPREC
 70
     4
  9
$SKETCHINC
 40
0.1
  9
$FILLETRAD
 40
0.0
  9
$AUNITS
 70
     0
  9
$AUPREC
 70
     0
  9
$MENU
  1
.
  9
$ELEVATION
 40
0.0
  9
$PELEVATION
 40
0.0
  9
$THICKNESS
 40
0.0
  9
$LIMCHECK
 70
     0
  9
$CHAMFERA
 40
0.0
  9
$CHAMFERB
 40
0.0
  9
$CHAMFERC
 40
0.0
  9
$CHAMFERD
 40
0.0
  9
$SKPOLY
 70
     0
  9
$TDCREATE
 40
2455155.398003287
  9
$TDUCREATE
 40
2455155.356336621
  9
$TDUPDATE
 40
2455264.495093241
  9
$TDUUPDATE
 40
2455264.453426574
  9
$TDINDWG
 40
0.0246783796
  9
$TDUSRTIMER
 40
0.0246783796
  9
$USRTIMER
 70
     1
  9
$ANGBASE
 50
0.0
  9
$ANGDIR
 70
     0
  9
$PDMODE
 70
     0
  9
$PDSIZE
 40
0.0
  9
$PLINEWID
 40
0.0
  9
$SPLFRAME
 70
     0
  9
$SPLINETYPE
 70
     6
  9
$SPLINESEGS
 70
     8
  9
$HANDSEED
  5
537
  9
$SURFTAB1
 70
     6
  9
$SURFTAB2
 70
     6
  9
$SURFTYPE
 70
     6
  9
$SURFU
 70
     6
  9
$SURFV
 70
     6
  9
$UCSBASE
  2

  9
$UCSNAME
  2

  9
$UCSORG
 10
0.0
 20
0.0
 30
0.0
  9
$UCSXDIR
 10
1.0
 20
0.0
 30
0.0
  9
$UCSYDIR
 10
0.0
 20
1.0
 30
0.0
  9
$UCSORTHOREF
  2

  9
$UCSORTHOVIEW
 70
     0
  9
$UCSORGTOP
 10
0.0
 20
0.0
 30
0.0
  9
$UCSORGBOTTOM
 10
0.0
 20
0.0
 30
0.0
  9
$UCSORGLEFT
 10
0.0
 20
0.0
 30
0.0
  9
$UCSORGRIGHT
 10
0.0
 20
0.0
 30
0.0
  9
$UCSORGFRONT
 10
0.0
 20
0.0
 30
0.0
  9
$UCSORGBACK
 10
0.0
 20
0.0
 30
0.0
  9
$PUCSBASE
  2

  9
$PUCSNAME
  2

  9
$PUCSORG
 10
0.0
 20
0.0
 30
0.0
  9
$PUCSXDIR
 10
1.0
 20
0.0
 30
0.0
  9
$PUCSYDIR
 10
0.0
 20
1.0
 30
0.0
  9
$PUCSORTHOREF
  2

  9
$PUCSORTHOVIEW
 70
     0
  9
$PUCSORGTOP
 10
0.0
 20
0.0
 30
0.0
  9
$PUCSORGBOTTOM
 10
0.0
 20
0.0
 30
0.0
  9
$PUCSORGLEFT
 10
0.0
 20
0.0
 30
0.0
  9
$PUCSORGRIGHT
 10
0.0
 20
0.0
 30
0.0
  9
$PUCSORGFRONT
 10
0.0
 20
0.0
 30
0.0
  9
$PUCSORGBACK
 10
0.0
 20
0.0
 30
0.0
  9
$USERI1
 70
     0
  9
$USERI2
 70
     0
  9
$USERI3
 70
     0
  9
$USERI4
 70
     0
  9
$USERI5
 70
     0
  9
$USERR1
 40
0.0
  9
$USERR2
 40
0.0
  9
$USERR3
 40
0.0
  9
$USERR4
 40
0.0
  9
$USERR5
 40
0.0
  9
$WORLDVIEW
 70
     1
  9
$SHADEDGE
 70
     3
  9
$SHADEDIF
 70
    70
  9
$TILEMODE
 70
     1
  9
$MAXACTVP
 70
    64
  9
$PINSBASE
 10
0.0
 20
0.0
 30
0.0
  9
$PLIMCHECK
 70
     0
  9
$PEXTMIN
 10
0.0
 20
0.0
 30
0.0
  9
$PEXTMAX
 10
0.0
 20
0.0
 30
0.0
  9
$PLIMMIN
 10
0.0
 20
0.0
  9
$PLIMMAX
 10
12.0
 20
9.0
  9
$UNITMODE
 70
     0
  9
$VISRETAIN
 70
     1
  9
$PLINEGEN
 70
     0
  9
$PSLTSCALE
 70
     1
  9
$TREEDEPTH
 70
  3020
  9
$CMLSTYLE
  2
Standard
  9
$CMLJUST
 70
     0
  9
$CMLSCALE
 40
1.0
  9
$PROXYGRAPHICS
 70
     1
  9
$MEASUREMENT
 70
     0
  9
$CELWEIGHT
370
    -1
  9
$ENDCAPS
280
     0
  9
$JOINSTYLE
280
     0
  9
$LWDISPLAY
290
     0
  9
$INSUNITS
 70
     1
  9
$HYPERLINKBASE
  1

  9
$STYLESHEET
  1

  9
$XEDIT
290
     1
  9
$CEPSNTYPE
380
     0
  9
$PSTYLEMODE
290
     1
  9
$FINGERPRINTGUID
  2
{CF2DD033-3626-46BB-AD26-4B318E6A86B1}
  9
$VERSIONGUID
  2
{A6B94CBF-B144-45C0-B6F1-5AEC169F085B}
  9
$EXTNAMES
290
     1
  9
$PSVPSCALE
 40
0.0
  9
$OLESTARTUP
290
     0
  0
ENDSEC
  0
SECTION
  2
CLASSES
  0
CLASS
  1
ACDBDICTIONARYWDFLT
  2
AcDbDictionaryWithDefault
  3
ObjectDBX Classes
 90
        0
280
     0
281
     0
  0
CLASS
  1
ACDBPLACEHOLDER
  2
AcDbPlaceHolder
  3
ObjectDBX Classes
 90
        0
280
     0
281
     0
  0
CLASS
  1
LAYOUT
  2
AcDbLayout
  3
ObjectDBX Classes
 90
        0
280
     0
281
     0
  0
CLASS
  1
DICTIONARYVAR
  2
AcDbDictionaryVar
  3
ObjectDBX Classes
 90
        0
280
     0
281
     0
  0
CLASS
  1
TABLESTYLE
  2
AcDbTableStyle
  3
ObjectDBX Classes
 90
     4095
280
     0
281
     0
  0
CLASS
  1
MATERIAL
  2
AcDbMaterial
  3
ObjectDBX Classes
 90
     1153
280
     0
281
     0
  0
CLASS
  1
VISUALSTYLE
  2
AcDbVisualStyle
  3
ObjectDBX Classes
 90
     4095
280
     0
281
     0
  0
CLASS
  1
SCALE
  2
AcDbScale
  3
ObjectDBX Classes
 90
     1153
280
     0
281
     0
  0
CLASS
  1
MLEADERSTYLE
  2
AcDbMLeaderStyle
  3
ACDB_MLEADERSTYLE_CLASS
 90
     4095
280
     0
281
     0
  0
CLASS
  1
CELLSTYLEMAP
  2
AcDbCellStyleMap
  3
ObjectDBX Classes
 90
     1152
280
     0
281
     0
  0
CLASS
  1
SORTENTSTABLE
  2
AcDbSortentsTable
  3
ObjectDBX Classes
 90
        0
280
     0
281
     0
  0
CLASS
  1
DIMASSOC
  2
AcDbDimAssoc
  3
"AcDbDimAssoc|Product Desc:     AcDim ARX App For Dimension|Company:          Autodesk, Inc.|WEB Address:      www.autodesk.com"
 90
    32768
280
     0
281
     0
  0
CLASS
  1
ACDBQSCATEGORY
  2
AcQsCategory
  3
categories
 90
     1024
280
     0
281
     0
  0
ENDSEC
  0
SECTION
  2
TABLES
  0
TABLE
  2
VPORT
  5
8
330
0
100
AcDbSymbolTable
 70
     1
  0
VPORT
  5
94
330
8
100
AcDbSymbolTableRecord
100
AcDbViewportTableRecord
  2
*Active
 70
     0
 10
0.0
 20
0.0
 11
1.0
 21
1.0
 12
27.16091136534999
 22
42.47769574221421
 13
0.0
 23
0.0
 14
0.5
 24
0.5
 15
0.5
 25
0.5
 16
0.0
 26
0.0
 36
1.0
 17
0.0
 27
0.0
 37
0.0
 40
110.3196121462436
 41
1.834815756035578
 42
50.0
 43
0.0
 44
0.0
 50
0.0
 51
0.0
 71
     0
 72
  1000
 73
     1
 74
     1
 75
     0
 76
     0
 77
     0
 78
     0
281
     0
 65
     1
110
0.0
120
0.0
130
0.0
111
1.0
121
0.0
131
0.0
112
0.0
122
1.0
132
0.0
 79
     0
146
0.0
  0
ENDTAB
  0
TABLE
  2
LTYPE
  5
5
330
0
100
AcDbSymbolTable
 70
    29
  0
LTYPE
  5
14
330
5
100
AcDbSymbolTableRecord
100
AcDbLinetypeTableRecord
  2
ByBlock
 70
     0
  3

 72
    65
 73
     0
 40
0.0
  0
LTYPE
  5
15
330
5
100
AcDbSymbolTableRecord
100
AcDbLinetypeTableRecord
  2
ByLayer
 70
     0
  3

 72
    65
 73
     0
 40
0.0
  0
LTYPE
  5
16
330
5
100
AcDbSymbolTableRecord
100
AcDbLinetypeTableRecord
  2
Continuous
 70
     0
  3
Solid line
 72
    65
 73
     0
 40
0.0
  0
LTYPE
  5
4F4
330
5
100
AcDbSymbolTableRecord
100
AcDbLinetypeTableRecord
  2
BORDER
 70
     0
  3
Border __ __ . __ __ . __ __ . __ __ . __ __ .
 72
    65
 73
     6
 40
1.75
 49
0.5
 74
     0
 49
-0.25
 74
     0
 49
0.5
 74
     0
 49
-0.25
 74
     0
 49
0.0
 74
     0
 49
-0.25
 74
     0
  0
LTYPE
  5
4F5
330
5
100
AcDbSymbolTableRecord
100
AcDbLinetypeTableRecord
  2
BORDER2
 70
     0
  3
Border (.5x) __.__.__.__.__.__.__.__.__.__.__.
 72
    65
 73
     6
 40
0.875
 49
0.25
 74
     0
 49
-0.125
 74
     0
 49
0.25
 74
     0
 49
-0.125
 74
     0
 49
0.0
 74
     0
 49
-0.125
 74
     0
  0
LTYPE
  5
4F6
330
5
100
AcDbSymbolTableRecord
100
AcDbLinetypeTableRecord
  2
BORDERX2
 70
     0
  3
Border (2x) ____  ____  .  ____  ____  .  ___
 72
    65
 73
     6
 40
3.5
 49
1.0
 74
     0
 49
-0.5
 74
     0
 49
1.0
 74
     0
 49
-0.5
 74
     0
 49
0.0
 74
     0
 49
-0.5
 74
     0
  0
LTYPE
  5
4F7
330
5
100
AcDbSymbolTableRecord
100
AcDbLinetypeTableRecord
  2
CENTER
 70
     0
  3
Center ____ _ ____ _ ____ _ ____ _ ____ _ ____
 72
    65
 73
     4
 40
2.0
 49
1.25
 74
     0
 49
-0.25
 74
     0
 49
0.25
 74
     0
 49
-0.25
 74
     0
  0
LTYPE
  5
4F8
330
5
100
AcDbSymbolTableRecord
100
AcDbLinetypeTableRecord
  2
CENTER2
 70
     0
  3
Center (.5x) ___ _ ___ _ ___ _ ___ _ ___ _ ___
 72
    65
 73
     4
 40
1.125
 49
0.75
 74
     0
 49
-0.125
 74
     0
 49
0.125
 74
     0
 49
-0.125
 74
     0
  0
LTYPE
  5
4F9
330
5
100
AcDbSymbolTableRecord
100
AcDbLinetypeTableRecord
  2
CENTERX2
 70
     0
  3
Center (2x) ________  __  ________  __  _____
 72
    65
 73
     4
 40
4.0
 49
2.5
 74
     0
 49
-0.5
 74
     0
 49
0.5
 74
     0
 49
-0.5
 74
     0
  0
LTYPE
  5
4FA
330
5
100
AcDbSymbolTableRecord
100
AcDbLinetypeTableRecord
  2
DASHDOT
 70
     0
  3
Dash dot __ . __ . __ . __ . __ . __ . __ . __
 72
    65
 73
     4
 40
1.0
 49
0.5
 74
     0
 49
-0.25
 74
     0
 49
0.0
 74
     0
 49
-0.25
 74
     0
  0
LTYPE
  5
4FB
330
5
100
AcDbSymbolTableRecord
100
AcDbLinetypeTableRecord
  2
DASHDOT2
 70
     0
  3
Dash dot (.5x) _._._._._._._._._._._._._._._.
 72
    65
 73
     4
 40
0.5
 49
0.25
 74
     0
 49
-0.125
 74
     0
 49
0.0
 74
     0
 49
-0.125
 74
     0
  0
LTYPE
  5
4FC
330
5
100
AcDbSymbolTableRecord
100
AcDbLinetypeTableRecord
  2
DASHDOTX2
 70
     0
  3
Dash dot (2x) ____  .  ____  .  ____  .  ___
 72
    65
 73
     4
 40
2.0
 49
1.0
 74
     0
 49
-0.5
 74
     0
 49
0.0
 74
     0
 49
-0.5
 74
     0
  0
LTYPE
  5
4FD
330
5
100
AcDbSymbolTableRecord
100
AcDbLinetypeTableRecord
  2
DASHED
 70
     0
  3
Dashed __ __ __ __ __ __ __ __ __ __ __ __ __ _
 72
    65
 73
     2
 40
0.75
 49
0.5
 74
     0
 49
-0.25
 74
     0
  0
LTYPE
  5
4FE
330
5
100
AcDbSymbolTableRecord
100
AcDbLinetypeTableRecord
  2
DASHED2
 70
     0
  3
Dashed (.5x) _ _ _ _ _ _ _ _ _ _ _ _ _ _ _ _ _
 72
    65
 73
     2
 40
0.375
 49
0.25
 74
     0
 49
-0.125
 74
     0
  0
LTYPE
  5
4FF
330
5
100
AcDbSymbolTableRecord
100
AcDbLinetypeTableRecord
  2
DASHEDX2
 70
     0
  3
Dashed (2x) ____  ____  ____  ____  ____  ___
 72
    65
 73
     2
 40
1.5
 49
1.0
 74
     0
 49
-0.5
 74
     0
  0
LTYPE
  5
500
330
5
100
AcDbSymbolTableRecord
100
AcDbLinetypeTableRecord
  2
DIVIDE
 70
     0
  3
Divide ____ . . ____ . . ____ . . ____ . . ____
 72
    65
 73
     6
 40
1.25
 49
0.5
 74
     0
 49
-0.25
 74
     0
 49
0.0
 74
     0
 49
-0.25
 74
     0
 49
0.0
 74
     0
 49
-0.25
 74
     0
  0
LTYPE
  5
501
330
5
100
AcDbSymbolTableRecord
100
AcDbLinetypeTableRecord
  2
DIVIDE2
 70
     0
  3
Divide (.5x) __..__..__..__..__..__..__..__.._
 72
    65
 73
     6
 40
0.625
 49
0.25
 74
     0
 49
-0.125
 74
     0
 49
0.0
 74
     0
 49
-0.125
 74
     0
 49
0.0
 74
     0
 49
-0.125
 74
     0
  0
LTYPE
  5
502
330
5
100
AcDbSymbolTableRecord
100
AcDbLinetypeTableRecord
  2
DIVIDEX2
 70
     0
  3
Divide (2x) ________  .  .  ________  .  .  _
 72
    65
 73
     6
 40
2.5
 49
1.0
 74
     0
 49
-0.5
 74
     0
 49
0.0
 74
     0
 49
-0.5
 74
     0
 49
0.0
 74
     0
 49
-0.5
 74
     0
  0
LTYPE
  5
503
330
5
100
AcDbSymbolTableRecord
100
AcDbLinetypeTableRecord
  2
DOT
 70
     0
  3
Dot . . . . . . . . . . . . . . . . . . . . . .
 72
    65
 73
     2
 40
0.25
 49
0.0
 74
     0
 49
-0.25
 74
     0
  0
LTYPE
  5
504
330
5
100
AcDbSymbolTableRecord
100
AcDbLinetypeTableRecord
  2
DOT2
 70
     0
  3
Dot (.5x) .....................................
 72
    65
 73
     2
 40
0.125
 49
0.0
 74
     0
 49
-0.125
 74
     0
  0
LTYPE
  5
505
330
5
100
AcDbSymbolTableRecord
100
AcDbLinetypeTableRecord
  2
DOTX2
 70
     0
  3
Dot (2x) .  .  .  .  .  .  .  .  .  .  .  .  . 
 72
    65
 73
     2
 40
0.5
 49
0.0
 74
     0
 49
-0.5
 74
     0
  0
LTYPE
  5
506
330
5
100
AcDbSymbolTableRecord
100
AcDbLinetypeTableRecord
  2
HIDDEN
 70
     0
  3
Hidden __ __ __ __ __ __ __ __ __ __ __ __ __ _
 72
    65
 73
     2
 40
0.375
 49
0.25
 74
     0
 49
-0.125
 74
     0
  0
LTYPE
  5
507
330
5
100
AcDbSymbolTableRecord
100
AcDbLinetypeTableRecord
  2
HIDDEN2
 70
     0
  3
Hidden (.5x) _ _ _ _ _ _ _ _ _ _ _ _ _ _ _ _ _
 72
    65
 73
     2
 40
0.1875
 49
0.125
 74
     0
 49
-0.0625
 74
     0
  0
LTYPE
  5
508
330
5
100
AcDbSymbolTableRecord
100
AcDbLinetypeTableRecord
  2
HIDDENX2
 70
     0
  3
Hidden (2x) ____ ____ ____ ____ ____ ____ ____
 72
    65
 73
     2
 40
0.75
 49
0.5
 74
     0
 49
-0.25
 74
     0
  0
LTYPE
  5
509
330
5
100
AcDbSymbolTableRecord
100
AcDbLinetypeTableRecord
  2
PHANTOM
 70
     0
  3
Phantom ______  __  __  ______  __  __  ______
 72
    65
 73
     6
 40
2.5
 49
1.25
 74
     0
 49
-0.25
 74
     0
 49
0.25
 74
     0
 49
-0.25
 74
     0
 49
0.25
 74
     0
 49
-0.25
 74
     0
  0
LTYPE
  5
50A
330
5
100
AcDbSymbolTableRecord
100
AcDbLinetypeTableRecord
  2
PHANTOM2
 70
     0
  3
Phantom (.5x) ___ _ _ ___ _ _ ___ _ _ ___ _ _
 72
    65
 73
     6
 40
1.25
 49
0.625
 74
     0
 49
-0.125
 74
     0
 49
0.125
 74
     0
 49
-0.125
 74
     0
 49
0.125
 74
     0
 49
-0.125
 74
     0
  0
LTYPE
  5
50B
330
5
100
AcDbSymbolTableRecord
100
AcDbLinetypeTableRecord
  2
PHANTOMX2
 70
     0
  3
Phantom (2x) ____________    ____    ____   _
 72
    65
 73
     6
 40
5.0
 49
2.5
 74
     0
 49
-0.5
 74
     0
 49
0.5
 74
     0
 49
-0.5
 74
     0
 49
0.5
 74
     0
 49
-0.5
 74
     0
  0
LTYPE
  5
50C
330
5
100
AcDbSymbolTableRecord
100
AcDbLinetypeTableRecord
  2
ASSI
 70
     0
  3
-.-.-.-.-.-.-.-.-.-.-.-.-.-.-.-.-.-.-.-.-.-.-.-
 72
    65
 73
     4
 40
16.0
 49
10.0
 74
     0
 49
-2.0
 74
     0
 49
2.0
 74
     0
 49
-2.0
 74
     0
  0
LTYPE
  5
50D
330
5
100
AcDbSymbolTableRecord
100
AcDbLinetypeTableRecord
  2
INGOMBRI
 70
     0
  3
--..--..--..--..--..--..--..--..--..--..--..--
 72
    65
 73
     6
 40
20.0
 49
10.0
 74
     0
 49
-2.0
 74
     0
 49
2.0
 74
     0
 49
-2.0
 74
     0
 49
2.0
 74
     0
 49
-2.0
 74
     0
  0
LTYPE
  5
50E
330
5
100
AcDbSymbolTableRecord
100
AcDbLinetypeTableRecord
  2
TRATTEGGIO
 70
     0
  3
- - - - - - - - - - - - - - - - - - - - - -
 72
    65
 73
     2
 40
5.5
 49
4.0
 74
     0
 49
-1.5
 74
     0
  0
LTYPE
  5
50F
330
5
100
AcDbSymbolTableRecord
100
AcDbLinetypeTableRecord
  2
PUNTO
 70
     0
  3
Punto . . . . . . . . . . . . . . . . . . . . .
 72
    65
 73
     2
 40
6.349999999999999
 49
0.0
 74
     0
 49
-6.349999999999999
 74
     0
  0
ENDTAB
  0
TABLE
  2
LAYER
  5
2
330
0
100
AcDbSymbolTable
 70
     6
  0
LAYER
  5
10
102
{ACAD_XDICTIONARY
360
E6
102
}
330
2
100
AcDbSymbolTableRecord
100
AcDbLayerTableRecord
  2
0
 70
     0
 62
     7
  6
Continuous
370
    -3
390
F
  0
LAYER
  5
15C
330
2
100
AcDbSymbolTableRecord
100
AcDbLayerTableRecord
  2
Defpoints
 70
     0
 62
     7
  6
Continuous
290
     0
370
    -3
390
F
  0
LAYER
  5
4EC
330
2
100
AcDbSymbolTableRecord
100
AcDbLayerTableRecord
  2
P-0000
 70
     0
 62
     7
  6
Continuous
370
    -3
390
F
1001
AcAecLayerStandard
1000

1000
TOP
  0
LAYER
  5
510
330
2
100
AcDbSymbolTableRecord
100
AcDbLayerTableRecord
  2
MS_AXES
 70
     0
 62
     1
  6
Continuous
370
    -3
390
F
  0
LAYER
  5
511
330
2
100
AcDbSymbolTableRecord
100
AcDbLayerTableRecord
  2
P-6853
 70
     0
 62
     7
  6
Continuous
370
    -3
390
F
  0
LAYER
  5
512
330
2
100
AcDbSymbolTableRecord
100
AcDbLayerTableRecord
  2
COSTRUZIONE
 70
     0
 62
     7
  6
Continuous
370
    -3
390
F
  0
ENDTAB
  0
TABLE
  2
STYLE
  5
3
330
0
100
AcDbSymbolTable
 70
     5
  0
STYLE
  5
11
330
3
100
AcDbSymbolTableRecord
100
AcDbTextStyleTableRecord
  2
Standard
 70
     0
 40
0.0
 41
1.0
 50
0.0
 71
     0
 42
0.2
  3
txt
  4

  0
STYLE
  5
DC
330
3
100
AcDbSymbolTableRecord
100
AcDbTextStyleTableRecord
  2
Annotative
 70
     0
 40
0.0
 41
1.0
 50
0.0
 71
     0
 42
0.2
  3
txt.shx
  4

1001
AcadAnnotative
1000
AnnotativeData
1002
{
1070
     1
1070
     1
1002
}
  0
STYLE
  5
15D
330
3
100
AcDbSymbolTableRecord
100
AcDbTextStyleTableRecord
  2
style1
 70
     0
 40
0.0
 41
1.0
 50
0.0
 71
     0
 42
2.5
  3
simplex.shx
  4

  0
STYLE
  5
513
330
3
100
AcDbSymbolTableRecord
100
AcDbTextStyleTableRecord
  2
ROMANS
 70
     0
 40
0.0
 41
1.0
 50
15.0
 71
     0
 42
3.0
  3
ROMANS.shx
  4

  0
STYLE
  5
514
330
3
100
AcDbSymbolTableRecord
100
AcDbTextStyleTableRecord
  2

 70
     1
 40
0.0
 41
1.0
 50
0.0
 71
     0
 42
0.2
  3
ltypeshp.shx
  4

  0
ENDTAB
  0
TABLE
  2
VIEW
  5
6
330
0
100
AcDbSymbolTable
 70
     0
  0
ENDTAB
  0
TABLE
  2
UCS
  5
7
330
0
100
AcDbSymbolTable
 70
     0
  0
ENDTAB
  0
TABLE
  2
APPID
  5
9
330
0
100
AcDbSymbolTable
 70
    17
  0
APPID
  5
12
330
9
100
AcDbSymbolTableRecord
100
AcDbRegAppTableRecord
  2
ACAD
 70
     0
  0
APPID
  5
DD
330
9
100
AcDbSymbolTableRecord
100
AcDbRegAppTableRecord
  2
AcadAnnoPO
 70
     0
  0
APPID
  5
DE
330
9
100
AcDbSymbolTableRecord
100
AcDbRegAppTableRecord
  2
AcadAnnotative
 70
     0
  0
APPID
  5
DF
330
9
100
AcDbSymbolTableRecord
100
AcDbRegAppTableRecord
  2
ACAD_DSTYLE_DIMJAG
 70
     0
  0
APPID
  5
E0
330
9
100
AcDbSymbolTableRecord
100
AcDbRegAppTableRecord
  2
ACAD_DSTYLE_DIMTALN
 70
     0
  0
APPID
  5
107
330
9
100
AcDbSymbolTableRecord
100
AcDbRegAppTableRecord
  2
ACAD_MLEADERVER
 70
     0
  0
APPID
  5
226
330
9
100
AcDbSymbolTableRecord
100
AcDbRegAppTableRecord
  2
ACAD_EXEMPT_FROM_CAD_STANDARDS
 70
     0
  0
APPID
  5
4ED
330
9
100
AcDbSymbolTableRecord
100
AcDbRegAppTableRecord
  2
AcAecLayerStandard
 70
     0
  0
APPID
  5
4F3
330
9
100
AcDbSymbolTableRecord
100
AcDbRegAppTableRecord
  2
TOP
 70
     0
  0
APPID
  5
516
330
9
100
AcDbSymbolTableRecord
100
AcDbRegAppTableRecord
  2
ACAD_DSTYLE_DIMTEXT_FILL
 70
     0
  0
APPID
  5
517
330
9
100
AcDbSymbolTableRecord
100
AcDbRegAppTableRecord
  2
MS_EXP_99
 70
     0
  0
APPID
  5
518
330
9
100
AcDbSymbolTableRecord
100
AcDbRegAppTableRecord
  2
MS_EXP_PRO
 70
     0
  0
APPID
  5
519
330
9
100
AcDbSymbolTableRecord
100
AcDbRegAppTableRecord
  2
MS_EXP_PROJECT_BASE
 70
     0
  0
APPID
  5
51A
330
9
100
AcDbSymbolTableRecord
100
AcDbRegAppTableRecord
  2
MS_EXPLO_FILLET
 70
     0
  0
APPID
  5
51B
330
9
100
AcDbSymbolTableRecord
100
AcDbRegAppTableRecord
  2
MS_EXPLO_FOR_FILLET
 70
     0
  0
APPID
  5
51C
330
9
100
AcDbSymbolTableRecord
100
AcDbRegAppTableRecord
  2
MS
 70
     0
  0
APPID
  5
51D
330
9
100
AcDbSymbolTableRecord
100
AcDbRegAppTableRecord
  2
MS_BASE
 70
     0
  0
ENDTAB
  0
TABLE
  2
DIMSTYLE
  5
A
330
0
100
AcDbSymbolTable
 70
     5
100
AcDbDimStyleTable
 71
     3
340
15E
340
27
340
E1
  0
DIMSTYLE
105
27
330
A
100
AcDbSymbolTableRecord
100
AcDbDimStyleTableRecord
  2
Standard
 70
     0
340
11
  0
DIMSTYLE
105
E1
330
A
100
AcDbSymbolTableRecord
100
AcDbDimStyleTableRecord
  2
Annotative
 70
     0
 40
0.0
340
11
1001
AcadAnnotative
1000
AnnotativeData
1002
{
1070
     1
1070
     1
1002
}
1001
ACAD_DSTYLE_DIMJAG
1070
   388
1040
1.5
1001
ACAD_DSTYLE_DIMTALN
1070
   392
1070
     0
  0
DIMSTYLE
105
15E
330
A
100
AcDbSymbolTableRecord
100
AcDbDimStyleTableRecord
  2
ISO-25
 70
     0
 41
2.5
 42
0.625
 43
3.75
 44
1.25
 73
     0
 74
     0
 77
     1
 78
     8
140
2.5
141
2.5
143
0.03937007874016
147
0.625
171
     3
172
     1
271
     2
272
     2
274
     3
278
    44
283
     0
284
     8
340
11
  0
DIMSTYLE
105
15F
102
{ACAD_REACTORS
330
161
102
}
330
A
100
AcDbSymbolTableRecord
100
AcDbDimStyleTableRecord
  2
Kote
 70
     0
 41
45.0
 42
15.0
 43
3.75
 44
1.25
 73
     0
 74
     0
 77
     1
 78
     8
140
40.0
141
2.5
143
0.03937007874016
147
15.0
171
     3
172
     1
176
   256
177
   256
178
   256
271
     2
272
     2
274
     3
278
    44
283
     0
284
     8
340
15D
341
156
342
156
1001
ACAD_DSTYLE_DIMJAG
1070
   388
1040
1.5
1001
ACAD_DSTYLE_DIMTALN
1070
   392
1070
     0
  0
DIMSTYLE
105
515
330
A
100
AcDbSymbolTableRecord
100
AcDbDimStyleTableRecord
  2
ACADTOP
 70
     0
 41
3.0
 42
1.0
 43
10.0
 44
0.5
 73
     0
 74
     0
 77
     1
 78
     8
 79
     2
140
3.0
141
0.0
146
0.7
147
1.5
172
     1
174
     1
176
     3
177
     3
178
     6
179
     2
271
     2
272
     2
284
     8
289
     0
340
513
  0
ENDTAB
  0
TABLE
  2
BLOCK_RECORD
  5
1
330
0
100
AcDbSymbolTable
 70
    12
  0
BLOCK_RECORD
  5
1F
102
{ACAD_XDICTIONARY
360
169
102
}
330
1
100
AcDbSymbolTableRecord
100
AcDbBlockTableRecord
  2
*Model_Space
340
22
  0
BLOCK_RECORD
  5
58
330
1
100
AcDbSymbolTableRecord
100
AcDbBlockTableRecord
  2
*Paper_Space
340
59
  0
BLOCK_RECORD
  5
5D
330
1
100
AcDbSymbolTableRecord
100
AcDbBlockTableRecord
  2
*Paper_Space0
340
5E
  0
BLOCK_RECORD
  5
14A
330
1
100
AcDbSymbolTableRecord
100
AcDbBlockTableRecord
  2
*D1
340
0
  0
BLOCK_RECORD
  5
156
330
1
100
AcDbSymbolTableRecord
100
AcDbBlockTableRecord
  2
_ClosedBlank
340
0
102
{BLKREFS
331
14F
331
150
102
}
  0
BLOCK_RECORD
  5
160
330
1
100
AcDbSymbolTableRecord
100
AcDbBlockTableRecord
  2
Kota
340
0
1001
ACAD
1000
DesignCenter Data
1002
{
1070
     1
1070
     4
1002
}
  0
BLOCK_RECORD
  5
1D3
330
1
100
AcDbSymbolTableRecord
100
AcDbBlockTableRecord
  2
116_A6
340
0
  0
BLOCK_RECORD
  5
418
330
1
100
AcDbSymbolTableRecord
100
AcDbBlockTableRecord
  2
fgtrz
340
0
310
2800000020000000200000000100080000000000000400000000000000000000000000000000000000000000000080000080000000808000800000008000800080800000C0C0C000C0DCC000F0CAA6000020400000206000002080000020A0000020C0000020E00000400000004020000040400000406000004080000040A0
310
000040C0000040E00000600000006020000060400000606000006080000060A0000060C0000060E00000800000008020000080400000806000008080000080A0000080C0000080E00000A0000000A0200000A0400000A0600000A0800000A0A00000A0C00000A0E00000C0000000C0200000C0400000C0600000C0800000C0
310
A00000C0C00000C0E00000E0000000E0200000E0400000E0600000E0800000E0A00000E0C00000E0E00040000000400020004000400040006000400080004000A0004000C0004000E00040200000402020004020400040206000402080004020A0004020C0004020E000404000004040200040404000404060004040800040
310
40A0004040C0004040E00040600000406020004060400040606000406080004060A0004060C0004060E00040800000408020004080400040806000408080004080A0004080C0004080E00040A0000040A0200040A0400040A0600040A0800040A0A00040A0C00040A0E00040C0000040C0200040C0400040C0600040C08000
310
40C0A00040C0C00040C0E00040E0000040E0200040E0400040E0600040E0800040E0A00040E0C00040E0E00080000000800020008000400080006000800080008000A0008000C0008000E00080200000802020008020400080206000802080008020A0008020C0008020E00080400000804020008040400080406000804080
310
008040A0008040C0008040E00080600000806020008060400080606000806080008060A0008060C0008060E00080800000808020008080400080806000808080008080A0008080C0008080E00080A0000080A0200080A0400080A0600080A0800080A0A00080A0C00080A0E00080C0000080C0200080C0400080C0600080C0
310
800080C0A00080C0C00080C0E00080E0000080E0200080E0400080E0600080E0800080E0A00080E0C00080E0E000C0000000C0002000C0004000C0006000C0008000C000A000C000C000C000E000C0200000C0202000C0204000C0206000C0208000C020A000C020C000C020E000C0400000C0402000C0404000C0406000C0
310
408000C040A000C040C000C040E000C0600000C0602000C0604000C0606000C0608000C060A000C060C000C060E000C0800000C0802000C0804000C0806000C0808000C080A000C080C000C080E000C0A00000C0A02000C0A04000C0A06000C0A08000C0A0A000C0A0C000C0A0E000C0C00000C0C02000C0C04000C0C06000
310
C0C08000C0C0A000F0FBFF00A4A0A000808080000000FF0000FF000000FFFF00FF000000FF00FF00FFFF0000FFFFFF00000000000000000000000000000000000000000000000000000000000000000000FFFFFFFFFFFFFFFFFFFFFFFFFFFFFFFFFFFFFFFFFFFFFFFFFFFFFFFFFFFF0000FF000000FF0000FFFF00FF00FF00
310
FFFF00FF00FF00FFFF0000FFFF0000FF0000FF000000FF0000FFFF00FFFFFF00FFFF00FFFFFF00FFFF0000FF000000FF0000FF000000000000FFFF00FFFFFF00FFFF00FFFFFF00FFFF000000000000FF0000FFFFFF00000000FF000000FF000000FF0000FF000000FF00000000FFFFFF0000FF000000000000FF000000FF00
310
0000FF0000FF000000FF000000000000FF0000FF000000000000FF000000FF000000FF0000FF000000FF000000000000FF0000FFFFFFFFFFFFFF00000000FF000000FF0000FF00000000FFFFFFFFFFFFFF0000FFFFFFFF00000000000000000000000000000000000000000000FFFFFFFF0000FF0000000000000000000000
310
0000000000000000000000000000000000FF0000FFFFFFFF000000000000FFFFFFFFFFFFFFFFFFFF000000000000FFFFFFFF0000FF00FFFFFFFFFFFF0000FF0000000000000000FF0000FFFFFFFFFFFF00FF0000FFFFFFFF000000000000FF0000000000000000FF000000000000FFFFFFFF0000FF000000000000000000FF
310
0000000000000000FF000000000000000000FF0000FFFFFFFF000000000000FF0000000000000000FF000000000000FFFFFFFF0000FFFFFFFFFFFFFFFF0000FF0000000000000000FF0000FFFFFFFFFFFFFFFF0000FF000000000000000000FF0000000000000000FF000000000000000000FF0000FFFFFFFF000000000000
310
FF0000000000000000FF000000000000FFFFFFFF0000FF00FFFFFFFFFFFF0000FF0000000000000000FF0000FFFFFFFFFFFF00FF0000FFFFFFFF000000000000FFFFFFFFFFFFFFFFFFFF000000000000FFFFFFFF0000FF00000000000000000000000000000000000000000000000000000000FF0000FFFFFF000000000000
310
000000000000000000000000000000000000FFFFFF0000FFFFFFFFFFFFFF00000000FF000000FF0000FF00000000FFFFFFFFFFFFFF0000FF000000000000FF000000FF000000FF0000FF000000FF000000000000FF0000FF000000000000FF000000FF000000FF0000FF000000FF000000000000FF0000FFFFFF00000000FF
310
000000FF000000FF0000FF000000FF00000000FFFFFF0000FFFF0000000000FF0000FFFFFF00FFFF00FFFFFF00FFFF0000000000FFFF0000FF000000FF0000FFFF00FFFFFF00FFFF00FFFFFF00FFFF0000FF000000FF0000FF000000FF0000FFFF00FF00FF00FFFF00FF00FF00FFFF0000FFFF0000FF0000FFFFFFFFFFFFFF
310
FFFFFFFFFFFFFFFFFFFFFFFFFFFFFFFFFFFFFFFFFFFFFF000000000000000000000000000000000000000000000000000000000000000000
102
{BLKREFS
331
491
102
}
1001
ACAD
1000
DesignCenter Data
1002
{
1070
     1
1070
     1
1002
}
  0
BLOCK_RECORD
  5
492
330
1
100
AcDbSymbolTableRecord
100
AcDbBlockTableRecord
  2
w54656
340
0
310
2800000020000000200000000100080000000000000400000000000000000000000000000000000000000000000080000080000000808000800000008000800080800000C0C0C000C0DCC000F0CAA6000020400000206000002080000020A0000020C0000020E00000400000004020000040400000406000004080000040A0
310
000040C0000040E00000600000006020000060400000606000006080000060A0000060C0000060E00000800000008020000080400000806000008080000080A0000080C0000080E00000A0000000A0200000A0400000A0600000A0800000A0A00000A0C00000A0E00000C0000000C0200000C0400000C0600000C0800000C0
310
A00000C0C00000C0E00000E0000000E0200000E0400000E0600000E0800000E0A00000E0C00000E0E00040000000400020004000400040006000400080004000A0004000C0004000E00040200000402020004020400040206000402080004020A0004020C0004020E000404000004040200040404000404060004040800040
310
40A0004040C0004040E00040600000406020004060400040606000406080004060A0004060C0004060E00040800000408020004080400040806000408080004080A0004080C0004080E00040A0000040A0200040A0400040A0600040A0800040A0A00040A0C00040A0E00040C0000040C0200040C0400040C0600040C08000
310
40C0A00040C0C00040C0E00040E0000040E0200040E0400040E0600040E0800040E0A00040E0C00040E0E00080000000800020008000400080006000800080008000A0008000C0008000E00080200000802020008020400080206000802080008020A0008020C0008020E00080400000804020008040400080406000804080
310
008040A0008040C0008040E00080600000806020008060400080606000806080008060A0008060C0008060E00080800000808020008080400080806000808080008080A0008080C0008080E00080A0000080A0200080A0400080A0600080A0800080A0A00080A0C00080A0E00080C0000080C0200080C0400080C0600080C0
310
800080C0A00080C0C00080C0E00080E0000080E0200080E0400080E0600080E0800080E0A00080E0C00080E0E000C0000000C0002000C0004000C0006000C0008000C000A000C000C000C000E000C0200000C0202000C0204000C0206000C0208000C020A000C020C000C020E000C0400000C0402000C0404000C0406000C0
310
408000C040A000C040C000C040E000C0600000C0602000C0604000C0606000C0608000C060A000C060C000C060E000C0800000C0802000C0804000C0806000C0808000C080A000C080C000C080E000C0A00000C0A02000C0A04000C0A06000C0A08000C0A0A000C0A0C000C0A0E000C0C00000C0C02000C0C04000C0C06000
310
C0C08000C0C0A000F0FBFF00A4A0A000808080000000FF0000FF000000FFFF00FF000000FF00FF00FFFF0000FFFFFF0000000000000000000000000000000000000000000000000000000000000000000000000000000000000000000000000000000000000000000000000000000000000000000000000000000000000000
310
00000000000000000000000000000000000000000000000000000000000000000000000000000000000000000000000000000000000000000000000000000000000000000000000000000000000000000000000000000000000000000000000000000000000000000000000000000000000000000000000000000000000000
310
00000000000000000000000000000000000000000000000000000000000000000000000000000000000000000000000000000000000000000000000000000000000000000000000000000000000000000000000000000000000000000000000000000000000000000000000000000000000000000000000000000000000000
310
00000000000000000000000000000000000000000000000000000000000000000000000000000000000000000000000000000000FFFFFFFFFFFFFFFFFFFFFFFFFFFFFFFFFFFFFFFFFFFFFFFFFFFFFFFFFFFF0000FF000000FF0000FFFF0000FF0000FFFF0000FF0000FFFF0000FF000000FF0000FFFFFFFFFFFFFFFFFFFFFF
310
00FFFFFFFFFFFF00FFFFFFFFFFFFFFFFFFFFFF000000FFFF00FF0000FFFF00FFFFFF00FFFF00FFFFFF00FFFF0000FF00FFFF000000000000FF000000FFFF00FFFFFF00FFFF00FFFFFF0000FF000000FF000000000000000000FFFF00FF000000FF000000FF0000FF000000FF00FFFF000000000000000000000000FFFF0000
310
00FF000000FF0000FF000000FFFF00000000000000000000000000000000FFFFFFFFFFFFFFFFFFFFFFFFFFFF0000000000000000000000000000000000000000000000000000000000000000000000000000000000000000000000000000000000000000000000000000000000000000000000000000000000000000000000
310
00000000000000000000000000000000000000000000000000000000000000000000000000000000000000000000000000000000000000000000000000000000000000000000000000000000000000000000000000000000000000000000000000000000000000000000000000000000000000000000000000000000000000
310
00000000000000000000000000000000000000000000000000000000000000000000000000000000000000000000000000000000000000000000000000000000000000000000000000000000000000000000000000000000000000000000000000000000000000000000000000000000000000000000000000000000000000
310
0000000000000000000000000000000000000000000000000000000000000000000000000000000000000000000000000000000000000000
102
{BLKREFS
331
4E1
102
}
1001
ACAD
1000
DesignCenter Data
1002
{
1070
     1
1070
     1
1002
}
  0
ENDTAB
  0
ENDSEC
  0
SECTION
  2
BLOCKS
  0
BLOCK
  5
20
330
1F
100
AcDbEntity
  8
0
100
AcDbBlockBegin
  2
*Model_Space
 70
     0
 10
0.0
 20
0.0
 30
0.0
  3
*Model_Space
  1

  0
ENDBLK
  5
21
330
1F
100
AcDbEntity
  8
0
100
AcDbBlockEnd
  0
BLOCK
  5
5A
330
58
100
AcDbEntity
 67
     1
  8
0
100
AcDbBlockBegin
  2
*Paper_Space
 70
     0
 10
0.0
 20
0.0
 30
0.0
  3
*Paper_Space
  1

  0
ENDBLK
  5
5B
330
58
100
AcDbEntity
 67
     1
  8
0
100
AcDbBlockEnd
  0
BLOCK
  5
5F
330
5D
100
AcDbEntity
 67
     1
  8
0
100
AcDbBlockBegin
  2
*Paper_Space0
 70
     0
 10
0.0
 20
0.0
 30
0.0
  3
*Paper_Space0
  1

  0
ENDBLK
  5
60
330
5D
100
AcDbEntity
 67
     1
  8
0
100
AcDbBlockEnd
  0
BLOCK
  5
14B
330
14A
100
AcDbEntity
  8
0
100
AcDbBlockBegin
  2
*D1
 70
     1
 10
0.0
 20
0.0
 30
0.0
  3
*D1
  1

  0
LINE
  5
14C
330
14A
100
AcDbEntity
  8
0
370
    -2
100
AcDbLine
 10
411.0740090704708
 20
104.2001581764954
 30
0.0
 11
411.0740090704708
 21
117.7987577584721
 31
0.0
  0
LINE
  5
14D
330
14A
100
AcDbEntity
  8
0
370
    -2
100
AcDbLine
 10
134.0702469551355
 20
104.2203153459304
 30
0.0
 11
134.0702469551355
 21
117.7987577584721
 31
0.0
  0
LINE
  5
14E
330
14A
100
AcDbEntity
  8
0
370
    -2
100
AcDbLine
 10
366.0740090704709
 20
116.5487577584721
 30
0.0
 11
179.0702469551355
 21
116.5487577584721
 31
0.0
  0
INSERT
  5
14F
330
14A
100
AcDbEntity
  8
0
370
    -2
100
AcDbBlockReference
  2
_ClosedBlank
 10
411.0740090704708
 20
116.5487577584721
 30
0.0
 41
45.0
 42
45.0
 43
45.0
  0
INSERT
  5
150
330
14A
100
AcDbEntity
  8
0
370
    -2
100
AcDbBlockReference
  2
_ClosedBlank
 10
134.0702469551355
 20
116.5487577584721
 30
0.0
 41
45.0
 42
45.0
 43
45.0
 50
180.0
  0
MTEXT
  5
151
330
14A
100
AcDbEntity
  8
0
100
AcDbMText
 10
272.5721280128032
 20
151.5487577584721
 30
0.0
 40
40.0
 41
0.0
 71
     5
 72
     1
  1
KOTE
  7
style1
 73
     1
 44
1.0
1001
ACAD
1000
MTEXTBEGIN
1070
    73
1070
     1
1070
    44
1040
1.0
1070
    74
1070
     0
1000
MTEXTEND
  0
POINT
  5
152
330
14A
100
AcDbEntity
  8
Defpoints
 62
     0
100
AcDbPoint
 10
411.0740090704708
 20
89.20015817649545
 30
0.0
  0
POINT
  5
153
330
14A
100
AcDbEntity
  8
Defpoints
 62
     0
100
AcDbPoint
 10
134.0702469551355
 20
89.22031534593044
 30
0.0
  0
POINT
  5
154
330
14A
100
AcDbEntity
  8
Defpoints
 62
     0
100
AcDbPoint
 10
134.0702469551355
 20
116.5487577584721
 30
0.0
  0
ENDBLK
  5
155
330
14A
100
AcDbEntity
  8
0
100
AcDbBlockEnd
  0
BLOCK
  5
157
330
156
100
AcDbEntity
  8
0
100
AcDbBlockBegin
  2
_ClosedBlank
 70
     0
 10
0.0
 20
0.0
 30
0.0
  3
_ClosedBlank
  1

  0
LINE
  5
158
330
156
100
AcDbEntity
  8
0
  6
ByBlock
 62
     0
370
    -2
100
AcDbLine
 10
-1.0
 20
0.1666666666666666
 30
0.0
 11
0.0
 21
0.0
 31
0.0
  0
LINE
  5
159
330
156
100
AcDbEntity
  8
0
  6
ByBlock
 62
     0
370
    -2
100
AcDbLine
 10
0.0
 20
0.0
 30
0.0
 11
-1.0
 21
-0.1666666666666666
 31
0.0
  0
LINE
  5
15A
330
156
100
AcDbEntity
  8
0
  6
ByBlock
 62
     0
370
    -2
100
AcDbLine
 10
-1.0
 20
0.1666666666666666
 30
0.0
 11
-1.0
 21
-0.1666666666666666
 31
0.0
  0
ENDBLK
  5
15B
330
156
100
AcDbEntity
  8
0
100
AcDbBlockEnd
  0
BLOCK
  5
162
330
160
100
AcDbEntity
  8
0
100
AcDbBlockBegin
  2
Kota
 70
     0
 10
0.0
 20
0.0
 30
0.0
  3
Kota
  1

  0
DIMENSION
  5
161
330
160
100
AcDbEntity
  8
0
100
AcDbDimension
  2
*D1
 10
134.0702469551355
 20
116.5487577584721
 30
0.0
 11
272.5721280128032
 21
151.5487577584721
 31
0.0
 70
    32
  1
KOTE
 71
     5
 42
277.0037621153353
  3
Kote
100
AcDbAlignedDimension
 13
411.0740090704708
 23
89.20015817649545
 33
0.0
 14
134.0702469551355
 24
89.22031534593044
 34
0.0
100
AcDbRotatedDimension
  0
ENDBLK
  5
163
330
160
100
AcDbEntity
  8
0
100
AcDbBlockEnd
  0
BLOCK
  5
20A
330
1D3
100
AcDbEntity
  8
0
100
AcDbBlockBegin
  2
116_A6
 70
     2
 10
0.0
 20
0.0
 30
0.0
  3
116_A6
  1

  0
ARC
  5
1D4
330
1D3
100
AcDbEntity
  8
0
 62
     7
100
AcDbCircle
 10
-49.928235
 20
172.428859
 30
1.0
 40
129.61416
100
AcDbArc
 50
273.064078
 51
284.689333
  0
ARC
  5
1D5
330
1D3
100
AcDbEntity
  8
0
 62
     7
100
AcDbCircle
 10
0.0000000000000009
 20
-0.000001000000001
 30
1.0
 40
50.0
100
AcDbArc
 50
158.630788
 51
180.0000050000001
  0
ARC
  5
1D6
330
1D3
100
AcDbEntity
  8
0
 62
     7
100
AcDbCircle
 10
0.0680360000000011
 20
-1.222138000000001
 30
1.0
 40
51.22218
100
AcDbArc
 50
90.07610399999995
 51
109.536406
  0
ARC
  5
1D7
330
1D3
100
AcDbEntity
  8
0
 62
     7
100
AcDbCircle
 10
-353.616223
 20
75.008144
 30
1.0
 40
312.261084
100
AcDbArc
 50
349.5215979999999
 51
354.116594
  0
LWPOLYLINE
  5
1D8
330
1D3
100
AcDbEntity
  8
0
 62
     7
100
AcDbPolyline
 90
        3
 70
     0
 43
0.0
 38
1.0
 10
37.758893
 20
40.53899699999999
 10
23.023755
 20
22.867669
 10
41.23715200000001
 20
37.283754
  0
LWPOLYLINE
  5
1D9
330
1D3
100
AcDbEntity
  8
0
 62
     7
100
AcDbPolyline
 90
        3
 70
     0
 43
0.0
 38
1.0
 10
42.24900499999999
 20
-37.044331
 10
22.07514
 20
-21.853189
 10
39.02371200000001
 20
-41.307151
  0
LWPOLYLINE
  5
1DA
330
1D3
100
AcDbEntity
  8
0
 62
     7
100
AcDbPolyline
 90
        3
 70
     0
 43
0.0
 38
1.0
 10
-38.636163
 20
41.77909099999999
 10
-21.877316
 20
22.092611
 10
-42.11442299999998
 20
36.818715
  0
ARC
  5
1DB
330
1D3
100
AcDbEntity
  8
0
 62
     7
100
AcDbCircle
 10
51.58090200000001
 20
1.170144
 30
1.0
 40
20.908659
100
AcDbArc
 50
109.720418
 51
186.396177
  0
ARC
  5
1DC
330
1D3
100
AcDbEntity
  8
0
 62
     7
100
AcDbCircle
 10
48.098065
 20
-4.208428000000001
 30
1.0
 40
15.401378
100
AcDbArc
 50
195.665713
 51
251.69493
  0
ARC
  5
1DD
330
1D3
100
AcDbEntity
  8
0
 62
     7
100
AcDbCircle
 10
-0.3018679999999989
 20
-47.80577499999999
 30
1.0
 40
17.97325
100
AcDbArc
 50
11.15084999999994
 51
120.481013
  0
ARC
  5
1DE
330
1D3
100
AcDbEntity
  8
0
 62
     7
100
AcDbCircle
 10
-4.044988999999999
 20
53.363778
 30
1.0
 40
23.828879
100
AcDbArc
 50
274.570572
 51
339.5400419999999
  0
ARC
  5
1DF
330
1D3
100
AcDbEntity
  8
0
 62
     7
100
AcDbCircle
 10
-5.293725999999999
 20
49.07104099999999
 30
1.0
 40
17.310632
100
AcDbArc
 50
199.3716240000001
 51
258.786797
  0
ARC
  5
1E0
330
1D3
100
AcDbEntity
  8
0
 62
     7
100
AcDbCircle
 10
-54.512738
 20
-3.495747000000001
 30
1.0
 40
24.414522
100
AcDbArc
 50
359.663063
 51
64.85338399999999
  0
ARC
  5
1E1
330
1D3
100
AcDbEntity
  8
0
 62
     7
100
AcDbCircle
 10
-49.928235
 20
-172.428855
 30
1.0
 40
129.61416
100
AcDbArc
 50
75.31067000000001
 51
86.935918
  0
ARC
  5
1E2
330
1D3
100
AcDbEntity
  8
0
 62
     7
100
AcDbCircle
 10
0.0000000000000009
 20
-0.000001000000001
 30
1.0
 40
50.0
100
AcDbArc
 50
180.0000050000001
 51
201.369208
  0
ARC
  5
1E3
330
1D3
100
AcDbEntity
  8
0
 62
     7
100
AcDbCircle
 10
0.0680360000000011
 20
1.222135999999999
 30
1.0
 40
51.22218
100
AcDbArc
 50
250.4635829999999
 51
269.923885
  0
ARC
  5
1E4
330
1D3
100
AcDbEntity
  8
0
 62
     7
100
AcDbCircle
 10
-353.616223
 20
-75.00814
 30
1.0
 40
312.261084
100
AcDbArc
 50
5.883404999999959
 51
10.47840300000004
  0
ARC
  5
1E5
330
1D3
100
AcDbEntity
  8
0
 62
     7
100
AcDbCircle
 10
49.92824099999999
 20
172.428859
 30
1.0
 40
129.61416
100
AcDbArc
 50
255.310668
 51
266.9359229999999
  0
ARC
  5
1E6
330
1D3
100
AcDbEntity
  8
0
 62
     7
100
AcDbCircle
 10
0.0000000000000009
 20
-0.000001000000001
 30
1.0
 40
50.0
100
AcDbArc
 50
0.0
 51
21.369208
  0
ARC
  5
1E7
330
1D3
100
AcDbEntity
  8
0
 62
     7
100
AcDbCircle
 10
-0.0680359999999993
 20
-1.222138000000001
 30
1.0
 40
51.22218
100
AcDbArc
 50
70.46359200000001
 51
89.92389399999998
  0
ARC
  5
1E8
330
1D3
100
AcDbEntity
  8
0
 62
     7
100
AcDbCircle
 10
353.616248
 20
75.008144
 30
1.0
 40
312.261084
100
AcDbArc
 50
185.883407
 51
190.478403
  0
ARC
  5
1E9
330
1D3
100
AcDbEntity
  8
0
 62
     7
100
AcDbCircle
 10
49.92824099999999
 20
-172.428855
 30
1.0
 40
129.61416
100
AcDbArc
 50
93.06407999999999
 51
104.689335
  0
ARC
  5
1EA
330
1D3
100
AcDbEntity
  8
0
 62
     7
100
AcDbCircle
 10
0.0000000000000009
 20
-0.000001000000001
 30
1.0
 40
50.0
100
AcDbArc
 50
338.630807
 51
0.0
  0
ARC
  5
1EB
330
1D3
100
AcDbEntity
  8
0
 62
     7
100
AcDbCircle
 10
-0.0680359999999993
 20
1.222135999999999
 30
1.0
 40
51.22218
100
AcDbArc
 50
270.076116
 51
289.5364180000001
  0
ARC
  5
1EC
330
1D3
100
AcDbEntity
  8
0
 62
     7
100
AcDbCircle
 10
353.616248
 20
-75.00814
 30
1.0
 40
312.261084
100
AcDbArc
 50
169.5215930000001
 51
174.116589
  0
LINE
  5
1ED
330
1D3
100
AcDbEntity
  8
0
 62
     7
100
AcDbLine
 10
19.5875
 20
22.686062
 30
1.0
 11
12.861102
 21
22.686062
 31
1.0
  0
LINE
  5
1EE
330
1D3
100
AcDbEntity
  8
0
 62
     7
100
AcDbLine
 10
-9.560233
 20
23.12506
 30
1.0
 11
-14.137921
 21
22.686062
 31
1.0
  0
LINE
  5
1EF
330
1D3
100
AcDbEntity
  8
0
 62
     7
100
AcDbLine
 10
-21.6117
 20
8.089433999999997
 30
1.0
 11
-21.6117
 21
6.333449000000001
 31
1.0
  0
LINE
  5
1F0
330
1D3
100
AcDbEntity
  8
0
 62
     7
100
AcDbLine
 10
-22.359076
 20
3.150721999999998
 30
1.0
 11
-22.732767
 21
-0.8002420000000007
 31
1.0
  0
LINE
  5
1F1
330
1D3
100
AcDbEntity
  8
0
 62
     7
100
AcDbLine
 10
-23.386722
 20
-14.628628
 30
1.0
 11
-23.386722
 21
-17.152857
 31
1.0
  0
LINE
  5
1F2
330
1D3
100
AcDbEntity
  8
0
100
AcDbLine
 10
15.0
 20
14.999999
 30
1.0
 11
15.0
 21
-14.999999
 31
1.0
  0
LINE
  5
1F3
330
1D3
100
AcDbEntity
  8
0
100
AcDbLine
 10
-15.0
 20
14.999999
 30
1.0
 11
15.0
 21
14.999999
 31
1.0
  0
LINE
  5
1F4
330
1D3
100
AcDbEntity
  8
0
100
AcDbLine
 10
15.0
 20
-14.999999
 30
1.0
 11
15.0
 21
14.999999
 31
1.0
  0
LINE
  5
1F5
330
1D3
100
AcDbEntity
  8
0
100
AcDbLine
 10
15.0
 20
14.999999
 30
1.0
 11
-15.0
 21
14.999999
 31
1.0
  0
LINE
  5
1F6
330
1D3
100
AcDbEntity
  8
0
100
AcDbLine
 10
-15.0
 20
14.999999
 30
1.0
 11
-15.0
 21
-14.999999
 31
1.0
  0
LINE
  5
1F7
330
1D3
100
AcDbEntity
  8
0
100
AcDbLine
 10
-15.0
 20
-14.999999
 30
1.0
 11
15.0
 21
-14.999999
 31
1.0
  0
LINE
  5
1F8
330
1D3
100
AcDbEntity
  8
0
100
AcDbLine
 10
15.0
 20
-14.999999
 30
1.0
 11
-15.0
 21
-14.999999
 31
1.0
  0
LINE
  5
1F9
330
1D3
100
AcDbEntity
  8
0
100
AcDbLine
 10
-15.0
 20
-14.999999
 30
1.0
 11
-15.0
 21
14.999999
 31
1.0
  0
LINE
  5
1FA
330
1D3
100
AcDbEntity
  8
0
 62
     7
100
AcDbLine
 10
-22.732767
 20
-2.226981999999999
 30
1.0
 11
-22.732767
 21
-4.641460999999999
 31
1.0
  0
LINE
  5
1FB
330
1D3
100
AcDbEntity
  8
0
 62
     7
100
AcDbLine
 10
-22.732767
 20
-4.641460999999999
 30
1.0
 11
-22.732767
 21
-6.836442000000001
 31
1.0
  0
LINE
  5
1FC
330
1D3
100
AcDbEntity
  8
0
 62
     7
100
AcDbLine
 10
-22.732767
 20
-6.836442000000001
 30
1.0
 11
-22.732767
 21
-8.592428000000001
 31
1.0
  0
LINE
  5
1FD
330
1D3
100
AcDbEntity
  8
0
 62
     7
100
AcDbLine
 10
-22.732767
 20
-8.592428000000001
 30
1.0
 11
-23.106454
 21
-10.348414
 31
1.0
  0
LINE
  5
1FE
330
1D3
100
AcDbEntity
  8
0
 62
     7
100
AcDbLine
 10
-21.6117
 20
17.41810499999999
 30
1.0
 11
-21.6117
 21
13.467138
 31
1.0
  0
LINE
  5
1FF
330
1D3
100
AcDbEntity
  8
0
 62
     7
100
AcDbLine
 10
-21.6117
 20
13.467138
 30
1.0
 11
-21.6117
 21
12.36964899999999
 31
1.0
  0
LINE
  5
200
330
1D3
100
AcDbEntity
  8
0
 62
     7
100
AcDbLine
 10
8.563677999999999
 20
22.686062
 30
1.0
 11
7.909722999999999
 21
22.686062
 31
1.0
  0
LINE
  5
201
330
1D3
100
AcDbEntity
  8
0
 62
     7
100
AcDbLine
 10
7.909722999999999
 20
22.686062
 30
1.0
 11
4.35968
 21
22.686062
 31
1.0
  0
LINE
  5
202
330
1D3
100
AcDbEntity
  8
0
 62
     7
100
AcDbLine
 10
4.35968
 20
22.686062
 30
1.0
 11
2.210968000000001
 21
22.686062
 31
1.0
  0
LINE
  5
203
330
1D3
100
AcDbEntity
  8
0
 62
     7
100
AcDbLine
 10
2.210968000000001
 20
22.686062
 30
1.0
 11
0.0622560000000005
 21
22.356817
 31
1.0
  0
LINE
  5
204
330
1D3
100
AcDbEntity
  8
0
 62
     7
100
AcDbLine
 10
-42.11442299999998
 20
-36.579298
 30
1.0
 11
-22.889169
 21
-22.860765
 31
1.0
  0
LINE
  5
205
330
1D3
100
AcDbEntity
  8
0
 62
     7
100
AcDbLine
 10
-22.889169
 20
-22.860765
 30
1.0
 11
-37.62430999999999
 21
-41.307151
 31
1.0
  0
REGION
  5
206
330
1D3
100
AcDbEntity
  8
0
  6
Continuous
100
AcDbModelerGeometry
 70
     1
  1
koo gi n o          
  1
ni ^ *+0;:,4 ^ *+0\^ [ nh ^ LR nmqoqnqfnj QK o  
  1
mjqlffffffffffffff fqfffffffffffffffj:rooh n:rono 
  1
=0;& {rn {n {rn {rn |
  1
3*2/ {rn {rn {m {o |
  1
,7:33 {rn {rn {rn {l {rn {n |
  1
9><: {rn {rn {k {m {rn {j 90-(>-; ;0*=3: 0*+ |
  1
300/ {rn {rn {i {l |
  1
/3>1:r,*-9><: {rn nqkhigjffmlmklfhgl:rooi mqjhkjnhmffhfnjmll:rooi o o o n n o o 90-(>-;@) V V V V |
  1
<0:;8: {rn {h {g {rn {f 90-(>-; {k {rn |
  1
<0:;8: {rn {no {i {rn {nn 90-(>-; {k {rn |
  1
<0:;8: {rn {i {nm {rn {nl 90-(>-; {k {rn |
  1
:;8: {rn {nk {nj {i {ni 90-(>-; |
  1
<0:;8: {rn {nh {h {rn {ng 90-(>-; {k {rn |
  1
:;8: {rn {nj {nf {h {mo 90-(>-; |
  1
<0:;8: {rn {g {mn {rn {mm 90-(>-; {k {rn |
  1
:;8: {rn {ml {nk {g {mk 90-(>-; |
  1
):-+:' {rn {f {mj |
  1
):-+:' {rn {f {mi |
  1
,+->687+r<*-): {rn kmqffffgjkomkjfgmg kmqffffggfllolmijk o roqfggommimojkohoiii oqnjklofnofjgnimhjg o V V |
  1
<0:;8: {rn {mh {no {rn {mg 90-(>-; {k {rn |
  1
:;8: {rn {nf {mf {no {lo 90-(>-; |
  1
):-+:' {rn {nn {ln |
  1
,+->687+r<*-): {rn nhqoiofjhmlnohnjjj khqojnnlfkkokkillj o roqfgjlgflokglijnjmn oqnholnhnofgigoinkg o V V |
  1
<0:;8: {rn {nm {lm {rn {ll 90-(>-; {k {rn |
  1
:;8: {rn {lk {ml {nm {lj 90-(>-; |
  1
):-+:' {rn {mm {li |
  1
,+->687+r<*-): {rn kiqjimjgghoijmnmnn ngqmnggnhoffimgmgf o roqnkmmffjmjohlnkkm oqfgfgmliklkijgmlkn o V V |
  1
/061+ {rn kmqffffgjkomkjfgmg kmqffffggfllolmijk o |
  1
/061+ {rn nhqoiofjhmlnohnjjj khqojnnlfkkokkillj o |
  1
<0:;8: {rn {lh {nh {rn {lg 90-(>-; {k {rn |
  1
:;8: {rn {mf {lf {nh {ko 90-(>-; |
  1
):-+:' {rn {ng {kn |
  1
,+->687+r<*-): {rn mqkniojjlhnhihgnnl:rooi kfqfffffignmmifhgj o roqfgjlgflnjfokghnmm roqnholnhokjglohfhki o V V |
  1
/061+ {rn mqkniojjlhnhihgnnl:rooi kfqfffffignmmifhgj o |
  1
<0:;8: {rn {mn {km {rn {kl 90-(>-; {k {rn |
  1
:;8: {rn {kk {lk {mn {kj 90-(>-; |
  1
):-+:' {rn {ll {ki |
  1
,+->687+r<*-): {rn jo rnqoooooooonomhfjik:rooi o roqngjkomjiffmkfgmnn oqfgmiimijnhofhlhn o V V |
  1
/061+ {rn kiqjimjgghoijmnmnn ngqmnggnhoffimgmgf o |
  1
<0:;8: {rn {kh {mh {rn {kg 90-(>-; {k {rn |
  1
:;8: {rn {lf {kf {mh {jo 90-(>-; |
  1
):-+:' {rn {mg {jn |
  1
,+->687+r<*-): {rn rnhqoiofjjjkionimgg khqojnnkoolgliofjj o roqfggommigjnkihmfik roqnjklogifjfnikgkgl o V V |
  1
/061+ {rn rnhqoiofjjjkionimgg khqojnnkoolgliofjj o |
  1
<0:;8: {rn {lm {jm {rn {jl 90-(>-; {k {rn |
  1
:;8: {rn {jk {kk {lm {jj 90-(>-; |
  1
):-+:' {rn {kl {ji |
  1
,+->687+r<*-): {rn kiqjimjflkhinfjokg rngqmnggoifofjhokki o oqngjkomkknmfkhkomi oqfgmiimihjfhggigkh o V V |
  1
/061+ {rn jo rnqoooooooonomhfjik:rooi o |
  1
<0:;8: {rn {jh {lh {rn {jg 90-(>-; {k {rn |
  1
:;8: {rn {kf {jf {lh {io 90-(>-; |
  1
):-+:' {rn {lg {in |
  1
,+->687+r<*-): {rn rklqoooooooihojjhij kmqfffffgnomjnggkj o roqnkmmfhkjooonkmmjg roqfgfgmlfknhgnnofnn o V V |
  1
/061+ {rn rklqoooooooihojjhij kmqfffffgnomjnggkj o |
  1
<0:;8: {rn {km {im {rn {il 90-(>-; {k {rn |
  1
:;8: {rn {ik {jk {km {ij 90-(>-; |
  1
):-+:' {rn {jl {ii |
  1
,+->687+r<*-): {rn kmqffffghilhojnlim rkmqffffilmkhfmiion o oqnkmmffhnnkjjmnlnn oqfgfgmliniihnojmji o V V |
  1
/061+ {rn kiqjimjflkhinfjokg rngqmnggoifofjhokki o |
  1
<0:;8: {rn {ih {kh {rn {ig 90-(>-; {k {rn |
  1
:;8: {rn {jf {if {kh {ho 90-(>-; |
  1
):-+:' {rn {kg {hn |
  1
,+->687+r<*-): {rn rkiqjimjjognlkoflln ngqmnggmlongnokhnj o roqngjkokkkmkinjlkij roqfgmiimmfgkofjklgf o V V |
  1
/061+ {rn rkiqjimjjognlkoflln ngqmnggmlongnokhnj o |
  1
<0:;8: {rn {jm {ih {rn {hm 90-(>-; {k {rn |
  1
:;8: {rn {hl {ik {jm {hk 90-(>-; |
  1
):-+:' {rn {il {hj |
  1
,+->687+r<*-): {rn nhqoiofijijilkhikg rkhqojnnlgkjoghmmfk o oqfggommkhnjnnfmijh oqnjklnooilhfnfnllf o V V |
  1
/061+ {rn kmqffffghilhojnlim rkmqffffilmkhfmiion o |
  1
<0:;8: {rn {im {jh {rn {hi 90-(>-; {k {rn |
  1
:;8: {rn {if {hh {jh {hg 90-(>-; |
  1
):-+:' {rn {jg {hf |
  1
,+->687+r<*-): {rn rkfqffffffffffffgon rjqlillmlnklgmjkgmj:rooi o oqngjkominmgonhmgig roqfgmiimiklimoommgh o V V |
  1
/061+ {rn rkfqffffffffffffgon rjqlillmlnklgmjkgmj:rooi o |
  1
:;8: {rn {go {hl {im {gn 90-(>-; |
  1
):-+:' {rn {hm {gm |
  1
,+->687+r<*-): {rn rnqokimoofjnhlhjhkg:rooj rkfqfffffggonjgnhnn o oqfgjlgflnnijlniion oqnholnhohokmfjljgk o V V |
  1
/061+ {rn nhqoiofijijilkhikg rkhqojnnlgkjoghmmfk o |
  1
:;8: {rn {hh {go {ih {gl 90-(>-; |
  1
):-+:' {rn {ig {gk |
  1
,+->687+r<*-): {rn rkiqjimjgghoijmnmnn rngqmnggnfoffimgmfg o oqnkmmffmgkmkinnomn roqfgfgmlihgoghifogf o V V |
  1
/061+ {rn rkiqjimjgghoijmnmnn rngqmnggnfoffimgmfg o |
  1
):-+:' {rn {hi {gj |
  1
,+->687+r<*-): {rn rnhqoiofiomifhnkilg rkhqojnnlkhfmfgofhk o oqfgjlgfmlmnnkfgghk roqnholnhjloioilnkmm o V V |
  1
/061+ {rn rnqokimoofjnhlhjhkg:rooj rkfqfffffggonjgnhnn o |
  1
,+->687+r<*-): {rn rkmqfffffnolnmniifj rkmqfffffkjgimonngl o oqfggommigmhoglogng roqnjkloghnnjmfkkijl o V V |
  1
/061+ {rn rkmqfffffnolnmniifj rkmqfffffkjgimonngl o |
  1
/061+ {rn rnhqoiofiomifhnkilg rkhqojnnlkhfmfgofhk o |
  0
ATTDEF
  5
207
330
1D3
100
AcDbEntity
  8
0
100
AcDbText
 10
3.71309357571906
 20
-1.030591386748
 30
0.0
 40
5.0
  1
116/A/6
100
AcDbAttributeDefinition
  3

  2
CODICE
 70
     3
  0
ATTDEF
  5
208
330
1D3
100
AcDbEntity
  8
0
100
AcDbText
 10
3.71309357571906
 20
-9.363924720081332
 30
0.0
 40
5.0
  1
1
100
AcDbAttributeDefinition
  3

  2
QUANT
 70
     3
  0
ATTDEF
  5
209
330
1D3
100
AcDbEntity
  8
0
100
AcDbText
 10
3.71309357571906
 20
-17.69725805341466
 30
0.0
 40
5.0
  1
0
100
AcDbAttributeDefinition
  3

  2
LUNG
 70
     3
  0
ENDBLK
  5
20B
330
1D3
100
AcDbEntity
  8
0
100
AcDbBlockEnd
  0
BLOCK
  5
419
330
418
100
AcDbEntity
  8
0
100
AcDbBlockBegin
  2
fgtrz
 70
     0
 10
0.0
 20
0.0
 30
0.0
  3
fgtrz
  1

  0
LWPOLYLINE
  5
41B
330
418
100
AcDbEntity
  8
0
100
AcDbPolyline
 90
        4
 70
     1
 43
0.0
 10
81.41121568811879
 20
34.60903912637869
 10
131.4112156881187
 20
34.60903912637869
 10
131.4112156881187
 20
84.60903912637869
 10
81.41121568811879
 20
84.60903912637869
  0
LWPOLYLINE
  5
41C
330
418
100
AcDbEntity
  8
0
100
AcDbPolyline
 90
        4
 70
     1
 43
0.0
 10
98.91121568811879
 20
52.10903912637869
 10
113.9112156881187
 20
52.10903912637869
 10
113.9112156881187
 20
67.10903912637869
 10
98.91121568811877
 20
67.10903912637869
  0
LINE
  5
41D
330
418
100
AcDbEntity
  8
0
100
AcDbLine
 10
126.9081475933074
 20
59.60903912637869
 30
0.0
 11
118.9112156881188
 21
59.60903912637869
 31
0.0
  0
ARC
  5
41E
330
418
100
AcDbEntity
  8
0
100
AcDbCircle
 10
126.6871426191719
 20
39.73209671233635
 30
0.0
 40
21.34380189582525
100
AcDbArc
 50
77.21270172778222
 51
111.3656049298558
  0
ARC
  5
41F
330
418
100
AcDbEntity
  8
0
100
AcDbCircle
 10
126.6871426191719
 20
79.48598154042104
 30
0.0
 40
21.34380189582525
100
AcDbArc
 50
248.6343950701435
 51
282.7872982722178
  0
LINE
  5
420
330
418
100
AcDbEntity
  8
0
100
AcDbLine
 10
126.9081475933074
 20
59.60903912637869
 30
0.0
 11
131.4112156881187
 21
60.54653912637869
 31
0.0
  0
LINE
  5
421
330
418
100
AcDbEntity
  8
0
100
AcDbLine
 10
126.9081475933074
 20
59.60903912637869
 30
0.0
 11
131.4112156881188
 21
58.6715391263787
 31
0.0
  0
LINE
  5
422
330
418
100
AcDbEntity
  8
0
100
AcDbLine
 10
126.9081475933074
 20
65.85903912637869
 30
0.0
 11
118.9112156881188
 21
65.85903912637869
 31
0.0
  0
ARC
  5
423
330
418
100
AcDbEntity
  8
0
100
AcDbCircle
 10
126.6871426191719
 20
45.98209671233634
 30
0.0
 40
21.34380189582525
100
AcDbArc
 50
77.21270172778222
 51
111.3656049298558
  0
ARC
  5
424
330
418
100
AcDbEntity
  8
0
100
AcDbCircle
 10
126.6871426191719
 20
85.73598154042104
 30
0.0
 40
21.34380189582525
100
AcDbArc
 50
248.6343950701435
 51
282.7872982722178
  0
LINE
  5
425
330
418
100
AcDbEntity
  8
0
100
AcDbLine
 10
126.9081475933074
 20
65.85903912637869
 30
0.0
 11
131.4112156881187
 21
66.79653912637869
 31
0.0
  0
LINE
  5
426
330
418
100
AcDbEntity
  8
0
100
AcDbLine
 10
126.9081475933074
 20
65.85903912637869
 30
0.0
 11
131.4112156881188
 21
64.92153912637869
 31
0.0
  0
LINE
  5
427
330
418
100
AcDbEntity
  8
0
100
AcDbLine
 10
126.9081475933074
 20
53.35903912637869
 30
0.0
 11
118.9112156881188
 21
53.35903912637869
 31
0.0
  0
ARC
  5
428
330
418
100
AcDbEntity
  8
0
100
AcDbCircle
 10
126.6871426191719
 20
33.48209671233635
 30
0.0
 40
21.34380189582525
100
AcDbArc
 50
77.21270172778222
 51
111.3656049298558
  0
ARC
  5
429
330
418
100
AcDbEntity
  8
0
100
AcDbCircle
 10
126.6871426191719
 20
73.23598154042104
 30
0.0
 40
21.34380189582525
100
AcDbArc
 50
248.6343950701435
 51
282.7872982722178
  0
LINE
  5
42A
330
418
100
AcDbEntity
  8
0
100
AcDbLine
 10
126.9081475933074
 20
53.35903912637869
 30
0.0
 11
131.4112156881187
 21
54.29653912637869
 31
0.0
  0
LINE
  5
42B
330
418
100
AcDbEntity
  8
0
100
AcDbLine
 10
126.9081475933074
 20
53.35903912637869
 30
0.0
 11
131.4112156881188
 21
52.4215391263787
 31
0.0
  0
LINE
  5
42C
330
418
100
AcDbEntity
  8
0
100
AcDbLine
 10
128.1581475933074
 20
47.10903912637869
 30
0.0
 11
122.0362156881188
 21
47.10903912637869
 31
0.0
  0
ARC
  5
42D
330
418
100
AcDbEntity
  8
0
100
AcDbCircle
 10
128.1456148284236
 20
33.3587977233307
 30
0.0
 40
15.04639147761523
100
AcDbArc
 50
77.46502785766022
 51
113.9561584173388
  0
ARC
  5
42E
330
418
100
AcDbEntity
  8
0
100
AcDbCircle
 10
128.1456148284236
 20
60.8592805294268
 30
0.0
 40
15.04639147761535
100
AcDbArc
 50
246.0438415826605
 51
282.5349721423391
  0
LINE
  5
42F
330
418
100
AcDbEntity
  8
0
100
AcDbLine
 10
128.1581475933074
 20
47.10903912637869
 30
0.0
 11
131.4112156881187
 21
48.04653912637869
 31
0.0
  0
LINE
  5
430
330
418
100
AcDbEntity
  8
0
100
AcDbLine
 10
128.1581475933074
 20
47.10903912637869
 30
0.0
 11
131.4112156881188
 21
46.1715391263787
 31
0.0
  0
LINE
  5
431
330
418
100
AcDbEntity
  8
0
100
AcDbLine
 10
128.1581475933074
 20
40.85903912637869
 30
0.0
 11
131.4112156881187
 21
41.79653912637869
 31
0.0
  0
LINE
  5
432
330
418
100
AcDbEntity
  8
0
100
AcDbLine
 10
128.1581475933074
 20
40.85903912637869
 30
0.0
 11
131.4112156881188
 21
39.9215391263787
 31
0.0
  0
LINE
  5
433
330
418
100
AcDbEntity
  8
0
100
AcDbLine
 10
128.1581475933074
 20
72.10903912637869
 30
0.0
 11
122.0362156881188
 21
72.10903912637869
 31
0.0
  0
ARC
  5
434
330
418
100
AcDbEntity
  8
0
100
AcDbCircle
 10
128.1456148284236
 20
85.85928052942668
 30
0.0
 40
15.04639147761523
100
AcDbArc
 50
246.0438415826612
 51
282.5349721423398
  0
ARC
  5
435
330
418
100
AcDbEntity
  8
0
100
AcDbCircle
 10
128.1456148284236
 20
58.35879772333059
 30
0.0
 40
15.04639147761535
100
AcDbArc
 50
77.46502785766022
 51
113.9561584173395
  0
LINE
  5
436
330
418
100
AcDbEntity
  8
0
100
AcDbLine
 10
128.1581475933074
 20
72.10903912637869
 30
0.0
 11
131.4112156881187
 21
71.17153912637869
 31
0.0
  0
LINE
  5
437
330
418
100
AcDbEntity
  8
0
100
AcDbLine
 10
128.1581475933074
 20
72.10903912637869
 30
0.0
 11
131.4112156881188
 21
73.04653912637869
 31
0.0
  0
LINE
  5
438
330
418
100
AcDbEntity
  8
0
100
AcDbLine
 10
128.1581475933074
 20
78.35903912637869
 30
0.0
 11
131.4112156881187
 21
77.42153912637869
 31
0.0
  0
LINE
  5
439
330
418
100
AcDbEntity
  8
0
100
AcDbLine
 10
128.1581475933074
 20
78.35903912637869
 30
0.0
 11
131.4112156881188
 21
79.29653912637869
 31
0.0
  0
LINE
  5
43A
330
418
100
AcDbEntity
  8
0
100
AcDbLine
 10
106.4112156881188
 20
80.10597103156733
 30
0.0
 11
106.4112156881188
 21
72.10903912637871
 31
0.0
  0
ARC
  5
43B
330
418
100
AcDbEntity
  8
0
100
AcDbCircle
 10
126.2881581021611
 20
79.88496605743188
 30
0.0
 40
21.34380189582525
100
AcDbArc
 50
167.2127017277818
 51
201.3656049298561
  0
ARC
  5
43C
330
418
100
AcDbEntity
  8
0
100
AcDbCircle
 10
86.53427327407644
 20
79.8849660574319
 30
0.0
 40
21.34380189582525
100
AcDbArc
 50
338.6343950701436
 51
12.78729827221803
  0
LINE
  5
43D
330
418
100
AcDbEntity
  8
0
100
AcDbLine
 10
106.4112156881188
 20
80.10597103156733
 30
0.0
 11
105.4737156881188
 21
84.60903912637871
 31
0.0
  0
LINE
  5
43E
330
418
100
AcDbEntity
  8
0
100
AcDbLine
 10
106.4112156881188
 20
80.10597103156733
 30
0.0
 11
107.3487156881188
 21
84.60903912637872
 31
0.0
  0
LINE
  5
43F
330
418
100
AcDbEntity
  8
0
100
AcDbLine
 10
100.1612156881188
 20
80.10597103156733
 30
0.0
 11
100.1612156881188
 21
72.10903912637871
 31
0.0
  0
ARC
  5
440
330
418
100
AcDbEntity
  8
0
100
AcDbCircle
 10
120.0381581021611
 20
79.88496605743188
 30
0.0
 40
21.34380189582525
100
AcDbArc
 50
167.2127017277818
 51
201.3656049298561
  0
ARC
  5
441
330
418
100
AcDbEntity
  8
0
100
AcDbCircle
 10
80.28427327407644
 20
79.8849660574319
 30
0.0
 40
21.34380189582525
100
AcDbArc
 50
338.6343950701436
 51
12.78729827221803
  0
LINE
  5
442
330
418
100
AcDbEntity
  8
0
100
AcDbLine
 10
100.1612156881188
 20
80.10597103156733
 30
0.0
 11
99.22371568811879
 21
84.60903912637871
 31
0.0
  0
LINE
  5
443
330
418
100
AcDbEntity
  8
0
100
AcDbLine
 10
100.1612156881188
 20
80.10597103156733
 30
0.0
 11
101.0987156881188
 21
84.60903912637872
 31
0.0
  0
LINE
  5
444
330
418
100
AcDbEntity
  8
0
100
AcDbLine
 10
112.6612156881188
 20
80.10597103156733
 30
0.0
 11
112.6612156881188
 21
72.10903912637871
 31
0.0
  0
ARC
  5
445
330
418
100
AcDbEntity
  8
0
100
AcDbCircle
 10
132.5381581021611
 20
79.88496605743188
 30
0.0
 40
21.34380189582525
100
AcDbArc
 50
167.2127017277818
 51
201.3656049298561
  0
ARC
  5
446
330
418
100
AcDbEntity
  8
0
100
AcDbCircle
 10
92.78427327407644
 20
79.8849660574319
 30
0.0
 40
21.34380189582525
100
AcDbArc
 50
338.6343950701436
 51
12.78729827221803
  0
LINE
  5
447
330
418
100
AcDbEntity
  8
0
100
AcDbLine
 10
112.6612156881188
 20
80.10597103156733
 30
0.0
 11
111.7237156881188
 21
84.60903912637871
 31
0.0
  0
LINE
  5
448
330
418
100
AcDbEntity
  8
0
100
AcDbLine
 10
112.6612156881188
 20
80.10597103156733
 30
0.0
 11
113.5987156881188
 21
84.60903912637872
 31
0.0
  0
LINE
  5
449
330
418
100
AcDbEntity
  8
0
100
AcDbLine
 10
118.9112156881188
 20
81.35597103156733
 30
0.0
 11
118.9112156881188
 21
75.23403912637871
 31
0.0
  0
ARC
  5
44A
330
418
100
AcDbEntity
  8
0
100
AcDbCircle
 10
132.6614570911668
 20
81.3434382666835
 30
0.0
 40
15.04639147761523
100
AcDbArc
 50
167.4650278576602
 51
203.9561584173389
  0
ARC
  5
44B
330
418
100
AcDbEntity
  8
0
100
AcDbCircle
 10
105.1609742850707
 20
81.34343826668356
 30
0.0
 40
15.04639147761535
100
AcDbArc
 50
336.04384158266
 51
12.53497214233947
  0
LINE
  5
44C
330
418
100
AcDbEntity
  8
0
100
AcDbLine
 10
118.9112156881188
 20
81.35597103156733
 30
0.0
 11
117.9737156881188
 21
84.60903912637871
 31
0.0
  0
LINE
  5
44D
330
418
100
AcDbEntity
  8
0
100
AcDbLine
 10
118.9112156881188
 20
81.35597103156733
 30
0.0
 11
119.8487156881188
 21
84.60903912637872
 31
0.0
  0
LINE
  5
44E
330
418
100
AcDbEntity
  8
0
100
AcDbLine
 10
125.1612156881188
 20
81.35597103156735
 30
0.0
 11
124.2237156881188
 21
84.60903912637871
 31
0.0
  0
LINE
  5
44F
330
418
100
AcDbEntity
  8
0
100
AcDbLine
 10
125.1612156881188
 20
81.35597103156735
 30
0.0
 11
126.0987156881188
 21
84.60903912637872
 31
0.0
  0
LINE
  5
450
330
418
100
AcDbEntity
  8
0
100
AcDbLine
 10
93.91121568811879
 20
81.35597103156735
 30
0.0
 11
93.91121568811879
 21
75.23403912637872
 31
0.0
  0
ARC
  5
451
330
418
100
AcDbEntity
  8
0
100
AcDbCircle
 10
80.16097428507078
 20
81.34343826668352
 30
0.0
 40
15.04639147761523
100
AcDbArc
 50
336.0438415826611
 51
12.53497214233979
  0
ARC
  5
452
330
418
100
AcDbEntity
  8
0
100
AcDbCircle
 10
107.6614570911669
 20
81.34343826668356
 30
0.0
 40
15.04639147761535
100
AcDbArc
 50
167.4650278576605
 51
203.95615841734
  0
LINE
  5
453
330
418
100
AcDbEntity
  8
0
100
AcDbLine
 10
93.91121568811879
 20
81.35597103156735
 30
0.0
 11
94.84871568811879
 21
84.60903912637872
 31
0.0
  0
LINE
  5
454
330
418
100
AcDbEntity
  8
0
100
AcDbLine
 10
93.91121568811879
 20
81.35597103156735
 30
0.0
 11
92.97371568811879
 21
84.60903912637872
 31
0.0
  0
LINE
  5
455
330
418
100
AcDbEntity
  8
0
100
AcDbLine
 10
87.66121568811879
 20
81.35597103156735
 30
0.0
 11
88.59871568811879
 21
84.60903912637872
 31
0.0
  0
LINE
  5
456
330
418
100
AcDbEntity
  8
0
100
AcDbLine
 10
87.66121568811879
 20
81.35597103156735
 30
0.0
 11
86.72371568811879
 21
84.60903912637872
 31
0.0
  0
LINE
  5
457
330
418
100
AcDbEntity
  8
0
100
AcDbLine
 10
85.91428378293015
 20
59.60903912637871
 30
0.0
 11
93.91121568811877
 21
59.60903912637871
 31
0.0
  0
ARC
  5
458
330
418
100
AcDbEntity
  8
0
100
AcDbCircle
 10
86.1352887570656
 20
79.48598154042105
 30
0.0
 40
21.34380189582525
100
AcDbArc
 50
257.2127017277816
 51
291.3656049298558
  0
ARC
  5
459
330
418
100
AcDbEntity
  8
0
100
AcDbCircle
 10
86.13528875706556
 20
39.73209671233636
 30
0.0
 40
21.34380189582525
100
AcDbArc
 50
68.63439507014428
 51
102.7872982722184
  0
LINE
  5
45A
330
418
100
AcDbEntity
  8
0
100
AcDbLine
 10
85.91428378293015
 20
59.60903912637871
 30
0.0
 11
81.41121568811875
 21
58.67153912637871
 31
0.0
  0
LINE
  5
45B
330
418
100
AcDbEntity
  8
0
100
AcDbLine
 10
85.91428378293015
 20
59.60903912637871
 30
0.0
 11
81.41121568811875
 21
60.54653912637871
 31
0.0
  0
LINE
  5
45C
330
418
100
AcDbEntity
  8
0
100
AcDbLine
 10
85.91428378293013
 20
53.35903912637871
 30
0.0
 11
93.91121568811875
 21
53.35903912637871
 31
0.0
  0
ARC
  5
45D
330
418
100
AcDbEntity
  8
0
100
AcDbCircle
 10
86.13528875706558
 20
73.23598154042105
 30
0.0
 40
21.34380189582525
100
AcDbArc
 50
257.2127017277816
 51
291.3656049298558
  0
ARC
  5
45E
330
418
100
AcDbEntity
  8
0
100
AcDbCircle
 10
86.13528875706556
 20
33.48209671233636
 30
0.0
 40
21.34380189582525
100
AcDbArc
 50
68.63439507014428
 51
102.7872982722171
  0
LINE
  5
45F
330
418
100
AcDbEntity
  8
0
100
AcDbLine
 10
85.91428378293013
 20
53.35903912637871
 30
0.0
 11
81.41121568811875
 21
52.42153912637871
 31
0.0
  0
LINE
  5
460
330
418
100
AcDbEntity
  8
0
100
AcDbLine
 10
85.91428378293013
 20
53.35903912637871
 30
0.0
 11
81.41121568811874
 21
54.29653912637871
 31
0.0
  0
LINE
  5
461
330
418
100
AcDbEntity
  8
0
100
AcDbLine
 10
85.91428378293015
 20
65.85903912637872
 30
0.0
 11
93.91121568811877
 21
65.85903912637871
 31
0.0
  0
ARC
  5
462
330
418
100
AcDbEntity
  8
0
100
AcDbCircle
 10
86.1352887570656
 20
85.73598154042105
 30
0.0
 40
21.34380189582525
100
AcDbArc
 50
257.2127017277816
 51
291.3656049298558
  0
ARC
  5
463
330
418
100
AcDbEntity
  8
0
100
AcDbCircle
 10
86.13528875706558
 20
45.98209671233635
 30
0.0
 40
21.34380189582525
100
AcDbArc
 50
68.63439507014428
 51
102.7872982722171
  0
LINE
  5
464
330
418
100
AcDbEntity
  8
0
100
AcDbLine
 10
85.91428378293015
 20
65.85903912637872
 30
0.0
 11
81.41121568811877
 21
64.92153912637872
 31
0.0
  0
LINE
  5
465
330
418
100
AcDbEntity
  8
0
100
AcDbLine
 10
85.91428378293015
 20
65.85903912637872
 30
0.0
 11
81.41121568811875
 21
66.79653912637871
 31
0.0
  0
LINE
  5
466
330
418
100
AcDbEntity
  8
0
100
AcDbLine
 10
84.66428378293015
 20
72.10903912637872
 30
0.0
 11
90.78621568811877
 21
72.10903912637871
 31
0.0
  0
ARC
  5
467
330
418
100
AcDbEntity
  8
0
100
AcDbCircle
 10
84.67681654781397
 20
85.85928052942671
 30
0.0
 40
15.04639147761523
100
AcDbArc
 50
257.4650278576602
 51
293.9561584173396
  0
ARC
  5
468
330
418
100
AcDbEntity
  8
0
100
AcDbCircle
 10
84.6768165478139
 20
58.35879772333059
 30
0.0
 40
15.04639147761535
100
AcDbArc
 50
66.04384158266043
 51
102.5349721423397
  0
LINE
  5
469
330
418
100
AcDbEntity
  8
0
100
AcDbLine
 10
84.66428378293015
 20
72.10903912637872
 30
0.0
 11
81.41121568811877
 21
71.17153912637872
 31
0.0
  0
LINE
  5
46A
330
418
100
AcDbEntity
  8
0
100
AcDbLine
 10
84.66428378293015
 20
72.10903912637872
 30
0.0
 11
81.41121568811875
 21
73.04653912637871
 31
0.0
  0
LINE
  5
46B
330
418
100
AcDbEntity
  8
0
100
AcDbLine
 10
84.66428378293015
 20
78.35903912637872
 30
0.0
 11
81.41121568811877
 21
77.42153912637872
 31
0.0
  0
LINE
  5
46C
330
418
100
AcDbEntity
  8
0
100
AcDbLine
 10
84.66428378293015
 20
78.35903912637872
 30
0.0
 11
81.41121568811877
 21
79.29653912637871
 31
0.0
  0
LINE
  5
46D
330
418
100
AcDbEntity
  8
0
100
AcDbLine
 10
84.66428378293013
 20
47.1090391263787
 30
0.0
 11
90.78621568811875
 21
47.1090391263787
 31
0.0
  0
ARC
  5
46E
330
418
100
AcDbEntity
  8
0
100
AcDbCircle
 10
84.67681654781394
 20
33.35879772333071
 30
0.0
 40
15.04639147761523
100
AcDbArc
 50
66.04384158266043
 51
102.5349721423397
  0
ARC
  5
46F
330
418
100
AcDbEntity
  8
0
100
AcDbCircle
 10
84.67681654781392
 20
60.8592805294268
 30
0.0
 40
15.04639147761535
100
AcDbArc
 50
257.4650278576602
 51
293.9561584173396
  0
LINE
  5
470
330
418
100
AcDbEntity
  8
0
100
AcDbLine
 10
84.66428378293013
 20
47.1090391263787
 30
0.0
 11
81.41121568811875
 21
48.04653912637871
 31
0.0
  0
LINE
  5
471
330
418
100
AcDbEntity
  8
0
100
AcDbLine
 10
84.66428378293013
 20
47.1090391263787
 30
0.0
 11
81.41121568811874
 21
46.17153912637871
 31
0.0
  0
LINE
  5
472
330
418
100
AcDbEntity
  8
0
100
AcDbLine
 10
84.66428378293011
 20
40.8590391263787
 30
0.0
 11
81.41121568811874
 21
41.79653912637871
 31
0.0
  0
LINE
  5
473
330
418
100
AcDbEntity
  8
0
100
AcDbLine
 10
84.66428378293011
 20
40.8590391263787
 30
0.0
 11
81.41121568811874
 21
39.92153912637871
 31
0.0
  0
LINE
  5
474
330
418
100
AcDbEntity
  8
0
100
AcDbLine
 10
106.4112156881187
 20
39.11210722119005
 30
0.0
 11
106.4112156881187
 21
47.10903912637868
 31
0.0
  0
ARC
  5
475
330
418
100
AcDbEntity
  8
0
100
AcDbCircle
 10
86.53427327407641
 20
39.33311219532553
 30
0.0
 40
21.34380189582525
100
AcDbArc
 50
347.2127017277812
 51
21.36560492985555
  0
ARC
  5
476
330
418
100
AcDbEntity
  8
0
100
AcDbCircle
 10
126.2881581021611
 20
39.33311219532548
 30
0.0
 40
21.34380189582525
100
AcDbArc
 50
158.6343950701444
 51
192.7872982722171
  0
LINE
  5
477
330
418
100
AcDbEntity
  8
0
100
AcDbLine
 10
106.4112156881187
 20
39.11210722119005
 30
0.0
 11
107.3487156881187
 21
34.60903912637868
 31
0.0
  0
LINE
  5
478
330
418
100
AcDbEntity
  8
0
100
AcDbLine
 10
106.4112156881187
 20
39.11210722119005
 30
0.0
 11
105.4737156881187
 21
34.60903912637868
 31
0.0
  0
LINE
  5
479
330
418
100
AcDbEntity
  8
0
100
AcDbLine
 10
112.6612156881187
 20
39.11210722119005
 30
0.0
 11
112.6612156881187
 21
47.10903912637868
 31
0.0
  0
ARC
  5
47A
330
418
100
AcDbEntity
  8
0
100
AcDbCircle
 10
92.78427327407641
 20
39.33311219532552
 30
0.0
 40
21.34380189582525
100
AcDbArc
 50
347.2127017277812
 51
21.36560492985555
  0
ARC
  5
47B
330
418
100
AcDbEntity
  8
0
100
AcDbCircle
 10
132.5381581021611
 20
39.33311219532548
 30
0.0
 40
21.34380189582525
100
AcDbArc
 50
158.6343950701444
 51
192.7872982722171
  0
LINE
  5
47C
330
418
100
AcDbEntity
  8
0
100
AcDbLine
 10
112.6612156881187
 20
39.11210722119005
 30
0.0
 11
113.5987156881187
 21
34.60903912637868
 31
0.0
  0
LINE
  5
47D
330
418
100
AcDbEntity
  8
0
100
AcDbLine
 10
112.6612156881187
 20
39.11210722119005
 30
0.0
 11
111.7237156881187
 21
34.60903912637868
 31
0.0
  0
LINE
  5
47E
330
418
100
AcDbEntity
  8
0
100
AcDbLine
 10
100.1612156881187
 20
39.11210722119006
 30
0.0
 11
100.1612156881187
 21
47.10903912637869
 31
0.0
  0
ARC
  5
47F
330
418
100
AcDbEntity
  8
0
100
AcDbCircle
 10
80.28427327407641
 20
39.33311219532553
 30
0.0
 40
21.34380189582525
100
AcDbArc
 50
347.2127017277812
 51
21.36560492985555
  0
ARC
  5
480
330
418
100
AcDbEntity
  8
0
100
AcDbCircle
 10
120.0381581021611
 20
39.33311219532549
 30
0.0
 40
21.34380189582525
100
AcDbArc
 50
158.6343950701444
 51
192.7872982722171
  0
LINE
  5
481
330
418
100
AcDbEntity
  8
0
100
AcDbLine
 10
100.1612156881187
 20
39.11210722119006
 30
0.0
 11
101.0987156881187
 21
34.60903912637869
 31
0.0
  0
LINE
  5
482
330
418
100
AcDbEntity
  8
0
100
AcDbLine
 10
100.1612156881187
 20
39.11210722119006
 30
0.0
 11
99.22371568811875
 21
34.60903912637868
 31
0.0
  0
LINE
  5
483
330
418
100
AcDbEntity
  8
0
100
AcDbLine
 10
93.91121568811874
 20
37.86210722119007
 30
0.0
 11
93.91121568811875
 21
43.9840391263787
 31
0.0
  0
ARC
  5
484
330
418
100
AcDbEntity
  8
0
100
AcDbCircle
 10
80.16097428507075
 20
37.8746399860739
 30
0.0
 40
15.04639147761523
100
AcDbArc
 50
347.4650278576605
 51
23.95615841733945
  0
ARC
  5
485
330
418
100
AcDbEntity
  8
0
100
AcDbCircle
 10
107.6614570911669
 20
37.87463998607383
 30
0.0
 40
15.04639147761535
100
AcDbArc
 50
156.0438415826605
 51
192.5349721423394
  0
LINE
  5
486
330
418
100
AcDbEntity
  8
0
100
AcDbLine
 10
93.91121568811874
 20
37.86210722119007
 30
0.0
 11
94.84871568811874
 21
34.60903912637871
 31
0.0
  0
LINE
  5
487
330
418
100
AcDbEntity
  8
0
100
AcDbLine
 10
93.91121568811874
 20
37.86210722119007
 30
0.0
 11
92.97371568811875
 21
34.60903912637869
 31
0.0
  0
LINE
  5
488
330
418
100
AcDbEntity
  8
0
100
AcDbLine
 10
87.66121568811874
 20
37.86210722119007
 30
0.0
 11
88.59871568811874
 21
34.60903912637871
 31
0.0
  0
LINE
  5
489
330
418
100
AcDbEntity
  8
0
100
AcDbLine
 10
87.66121568811874
 20
37.86210722119007
 30
0.0
 11
86.72371568811875
 21
34.60903912637871
 31
0.0
  0
LINE
  5
48A
330
418
100
AcDbEntity
  8
0
100
AcDbLine
 10
118.9112156881187
 20
37.86210722119005
 30
0.0
 11
118.9112156881187
 21
43.98403912637867
 31
0.0
  0
ARC
  5
48B
330
418
100
AcDbEntity
  8
0
100
AcDbCircle
 10
132.6614570911667
 20
37.87463998607385
 30
0.0
 40
15.04639147761523
100
AcDbArc
 50
156.0438415826605
 51
192.5349721423394
  0
ARC
  5
48C
330
418
100
AcDbEntity
  8
0
100
AcDbCircle
 10
105.1609742850706
 20
37.87463998607383
 30
0.0
 40
15.04639147761535
100
AcDbArc
 50
347.4650278576605
 51
23.95615841733945
  0
LINE
  5
48D
330
418
100
AcDbEntity
  8
0
100
AcDbLine
 10
118.9112156881187
 20
37.86210722119005
 30
0.0
 11
117.9737156881187
 21
34.60903912637868
 31
0.0
  0
LINE
  5
48E
330
418
100
AcDbEntity
  8
0
100
AcDbLine
 10
118.9112156881187
 20
37.86210722119005
 30
0.0
 11
119.8487156881187
 21
34.60903912637867
 31
0.0
  0
LINE
  5
48F
330
418
100
AcDbEntity
  8
0
100
AcDbLine
 10
125.1612156881187
 20
37.86210722119002
 30
0.0
 11
124.2237156881187
 21
34.60903912637867
 31
0.0
  0
LINE
  5
490
330
418
100
AcDbEntity
  8
0
100
AcDbLine
 10
125.1612156881187
 20
37.86210722119002
 30
0.0
 11
126.0987156881187
 21
34.60903912637866
 31
0.0
  0
ENDBLK
  5
41A
330
418
100
AcDbEntity
  8
0
100
AcDbBlockEnd
  0
BLOCK
  5
493
330
492
100
AcDbEntity
  8
0
100
AcDbBlockBegin
  2
w54656
 70
     0
 10
0.0
 20
0.0
 30
0.0
  3
w54656
  1

  0
LINE
  5
495
330
492
100
AcDbEntity
  8
0
100
AcDbLine
 10
81.41121568811875
 20
110.4504294428277
 30
0.0
 11
131.4112156881187
 21
110.4504294428277
 31
0.0
  0
LINE
  5
496
330
492
100
AcDbEntity
  8
0
100
AcDbLine
 10
97.61671653788141
 20
121.7004294428277
 30
0.0
 11
115.2057148383561
 21
121.7004294428277
 31
0.0
  0
LINE
  5
497
330
492
100
AcDbEntity
  8
0
100
AcDbLine
 10
81.41121568811875
 20
110.4504294428277
 30
0.0
 11
81.41121568811875
 21
113.5754294428277
 31
0.0
  0
LINE
  5
498
330
492
100
AcDbEntity
  8
0
100
AcDbLine
 10
81.41121568811875
 20
113.5754294428277
 30
0.0
 11
86.72371568811875
 21
113.5754294428277
 31
0.0
  0
LINE
  5
499
330
492
100
AcDbEntity
  8
0
100
AcDbLine
 10
88.59871568811875
 20
113.5754294428277
 30
0.0
 11
92.6157225495797
 21
113.5754294428277
 31
0.0
  0
LINE
  5
49A
330
492
100
AcDbEntity
  8
0
100
AcDbLine
 10
95.20670882665781
 20
113.5754294428277
 30
0.0
 11
98.68090069698446
 21
113.5754294428277
 31
0.0
  0
LINE
  5
49B
330
492
100
AcDbEntity
  8
0
100
AcDbLine
 10
101.6267699284513
 20
113.5754294428277
 30
0.0
 11
104.9309006969844
 21
113.5754294428277
 31
0.0
  0
LINE
  5
49C
330
492
100
AcDbEntity
  8
0
100
AcDbLine
 10
106.4112156881187
 20
115.0668746718649
 30
0.0
 11
106.4112156881189
 21
121.7004294428274
 31
0.0
  0
ARC
  5
49D
330
492
100
AcDbEntity
  8
0
100
AcDbCircle
 10
121.2475695099233
 20
114.8000041243436
 30
0.0
 40
16.36255677764762
100
AcDbArc
 50
155.0567436010562
 51
184.2920324166718
  0
ARC
  5
49E
330
492
100
AcDbEntity
  8
0
100
AcDbCircle
 10
91.57486186631173
 20
114.8000041243438
 30
0.0
 40
16.36255677765007
100
AcDbArc
 50
355.7079675833275
 51
24.94325639894087
  0
LINE
  5
49F
330
492
100
AcDbEntity
  8
0
100
AcDbLine
 10
100.1612156881187
 20
115.066874671865
 30
0.0
 11
100.1612156881187
 21
121.7004294428274
 31
0.0
  0
ARC
  5
4A0
330
492
100
AcDbEntity
  8
0
100
AcDbCircle
 10
114.9975695099245
 20
114.8000041243437
 30
0.0
 40
16.36255677764882
100
AcDbArc
 50
155.0567436010583
 51
184.2920324166718
  0
ARC
  5
4A1
330
492
100
AcDbEntity
  8
0
100
AcDbCircle
 10
85.54070959460286
 20
114.8685670653704
 30
0.0
 40
16.13795346303392
100
AcDbArc
 50
355.4039496723296
 51
25.0457188940327
  0
ARC
  5
4A2
330
492
100
AcDbEntity
  8
0
100
AcDbCircle
 10
80.16097428507077
 20
113.7160303025229
 30
0.0
 40
15.04639147761523
100
AcDbArc
 50
359.4645923501569
 51
23.95615841733945
  0
ARC
  5
4A3
330
492
100
AcDbEntity
  8
0
100
AcDbCircle
 10
107.6614570911668
 20
113.7160303025229
 30
0.0
 40
15.04639147761535
100
AcDbArc
 50
156.0438415826605
 51
180.5354076498424
  0
LINE
  5
4A4
330
492
100
AcDbEntity
  8
0
100
AcDbLine
 10
87.66121568811875
 20
115.066874671865
 30
0.0
 11
88.59871568811875
 21
113.5754294428277
 31
0.0
  0
LINE
  5
4A5
330
492
100
AcDbEntity
  8
0
100
AcDbLine
 10
87.66121568811875
 20
115.066874671865
 30
0.0
 11
86.72371568811875
 21
113.5754294428277
 31
0.0
  0
LINE
  5
4A6
330
492
100
AcDbEntity
  8
0
100
AcDbLine
 10
90.80436215543874
 20
119.6809746465857
 30
0.0
 11
81.41121568811875
 21
113.5754294428277
 31
0.0
  0
ARC
  5
4A7
330
492
100
AcDbEntity
  8
0
100
AcDbCircle
 10
97.61671653788141
 20
109.2004294428277
 30
0.0
 40
12.5
100
AcDbArc
 50
90.0
 51
123.0238675557967
  0
LINE
  5
4A8
330
492
100
AcDbEntity
  8
0
100
AcDbLine
 10
86.72371568811875
 20
113.5754294428277
 30
0.0
 11
87.35852906018683
 21
112.4112256442652
 31
0.0
  0
ARC
  5
4A9
330
492
100
AcDbEntity
  8
0
100
AcDbCircle
 10
87.63289191984453
 20
112.560829358258
 30
0.0
 40
0.3125
100
AcDbArc
 50
208.6026121204706
 51
329.3013060602352
  0
LINE
  5
4AA
330
492
100
AcDbEntity
  8
0
100
AcDbLine
 10
87.9015993914775
 20
112.4012908215698
 30
0.0
 11
88.59871568811875
 21
113.5754294428277
 31
0.0
  0
LINE
  5
4AB
330
492
100
AcDbEntity
  8
0
100
AcDbLine
 10
131.4112156881187
 20
110.4504294428277
 30
0.0
 11
131.4112156881187
 21
113.5754294428277
 31
0.0
  0
LINE
  5
4AC
330
492
100
AcDbEntity
  8
0
100
AcDbLine
 10
122.0180692207987
 20
119.6809746465857
 30
0.0
 11
131.4112156881187
 21
113.5754294428277
 31
0.0
  0
ARC
  5
4AD
330
492
100
AcDbEntity
  8
0
100
AcDbCircle
 10
115.2057148383561
 20
109.2004294428277
 30
0.0
 40
12.5
100
AcDbArc
 50
56.97613244420329
 51
90.0
  0
LINE
  5
4AE
330
492
100
AcDbEntity
  8
0
100
AcDbLine
 10
92.6157225495797
 20
113.5754294428277
 30
0.0
 11
93.3150538742238
 21
112.1073588641211
 31
0.0
  0
ARC
  5
4AF
330
492
100
AcDbEntity
  8
0
100
AcDbCircle
 10
93.59717912735845
 20
112.2417522848816
 30
0.0
 40
0.3125
100
AcDbArc
 50
205.4713010887621
 51
270.0
  0
LINE
  5
4B0
330
492
100
AcDbEntity
  8
0
100
AcDbLine
 10
93.59717912735845
 20
111.9292522848816
 30
0.0
 11
94.22525224887905
 21
111.9292522848816
 31
0.0
  0
LINE
  5
4B1
330
492
100
AcDbEntity
  8
0
100
AcDbLine
 10
94.50737750201373
 20
112.1073588641211
 30
0.0
 11
95.20670882665781
 21
113.5754294428277
 31
0.0
  0
ARC
  5
4B2
330
492
100
AcDbEntity
  8
0
100
AcDbCircle
 10
94.22525224887905
 20
112.2417522848816
 30
0.0
 40
0.3125
100
AcDbArc
 50
270.0
 51
334.5286989112379
  0
LINE
  5
4B3
330
492
100
AcDbEntity
  8
0
100
AcDbLine
 10
93.91121568811875
 20
119.8254294428277
 30
0.0
 11
93.91121568811875
 21
115.066874671865
 31
0.0
  0
LINE
  5
4B4
330
492
100
AcDbEntity
  8
0
100
AcDbLine
 10
93.91121568811875
 20
115.066874671865
 30
0.0
 11
92.6157225495797
 21
113.5754294428277
 31
0.0
  0
LINE
  5
4B5
330
492
100
AcDbEntity
  8
0
100
AcDbLine
 10
93.91121568811875
 20
115.066874671865
 30
0.0
 11
95.20670882665781
 21
113.5754294428277
 31
0.0
  0
LINE
  5
4B6
330
492
100
AcDbEntity
  8
0
100
AcDbLine
 10
100.1612156881187
 20
115.066874671865
 30
0.0
 11
98.68090069698444
 21
113.5754294428277
 31
0.0
  0
LINE
  5
4B7
330
492
100
AcDbEntity
  8
0
100
AcDbLine
 10
100.1612156881187
 20
115.066874671865
 30
0.0
 11
101.6267699284513
 21
113.5754294428277
 31
0.0
  0
LINE
  5
4B8
330
492
100
AcDbEntity
  8
0
100
AcDbLine
 10
98.68090069698444
 20
113.5754294428277
 30
0.0
 11
99.56505387422382
 21
112.1073588641211
 31
0.0
  0
ARC
  5
4B9
330
492
100
AcDbEntity
  8
0
100
AcDbCircle
 10
99.84717912735845
 20
112.2417522848816
 30
0.0
 40
0.3125
100
AcDbArc
 50
205.4713010887621
 51
270.0
  0
LINE
  5
4BA
330
492
100
AcDbEntity
  8
0
100
AcDbLine
 10
99.84717912735845
 20
111.9292522848816
 30
0.0
 11
100.475252248879
 21
111.9292522848816
 31
0.0
  0
LINE
  5
4BB
330
492
100
AcDbEntity
  8
0
100
AcDbLine
 10
100.7573775020137
 20
112.1073588641211
 30
0.0
 11
101.6267699284513
 21
113.5754294428277
 31
0.0
  0
ARC
  5
4BC
330
492
100
AcDbEntity
  8
0
100
AcDbCircle
 10
100.475252248879
 20
112.2417522848816
 30
0.0
 40
0.3125
100
AcDbArc
 50
270.0
 51
334.5286989112379
  0
LINE
  5
4BD
330
492
100
AcDbEntity
  8
0
100
AcDbLine
 10
106.4112156881187
 20
115.0668746718649
 30
0.0
 11
104.9309006969844
 21
113.5754294428276
 31
0.0
  0
LINE
  5
4BE
330
492
100
AcDbEntity
  8
0
100
AcDbLine
 10
106.4112156881187
 20
115.0668746718649
 30
0.0
 11
107.891530679253
 21
113.5754294428276
 31
0.0
  0
LINE
  5
4BF
330
492
100
AcDbEntity
  8
0
100
AcDbLine
 10
104.9309006969844
 20
113.5754294428276
 30
0.0
 11
105.8150538742238
 21
112.107358864121
 31
0.0
  0
ARC
  5
4C0
330
492
100
AcDbEntity
  8
0
100
AcDbCircle
 10
106.0971791273584
 20
112.2417522848815
 30
0.0
 40
0.3125
100
AcDbArc
 50
205.4713010887621
 51
270.0
  0
LINE
  5
4C1
330
492
100
AcDbEntity
  8
0
100
AcDbLine
 10
106.0971791273584
 20
111.9292522848815
 30
0.0
 11
106.725252248879
 21
111.9292522848815
 31
0.0
  0
LINE
  5
4C2
330
492
100
AcDbEntity
  8
0
100
AcDbLine
 10
107.0073775020137
 20
112.107358864121
 30
0.0
 11
107.891530679253
 21
113.5754294428276
 31
0.0
  0
ARC
  5
4C3
330
492
100
AcDbEntity
  8
0
100
AcDbCircle
 10
106.725252248879
 20
112.2417522848815
 30
0.0
 40
0.3125
100
AcDbArc
 50
270.0
 51
334.5286989112379
  0
LINE
  5
4C4
330
492
100
AcDbEntity
  8
0
100
AcDbLine
 10
131.4112156881187
 20
113.5754294428277
 30
0.0
 11
126.0987156881187
 21
113.5754294428277
 31
0.0
  0
LINE
  5
4C5
330
492
100
AcDbEntity
  8
0
100
AcDbLine
 10
124.2237156881187
 20
113.5754294428277
 30
0.0
 11
120.2067088266578
 21
113.5754294428277
 31
0.0
  0
LINE
  5
4C6
330
492
100
AcDbEntity
  8
0
100
AcDbLine
 10
117.6157225495797
 20
113.5754294428277
 30
0.0
 11
114.1415306792531
 21
113.5754294428277
 31
0.0
  0
LINE
  5
4C7
330
492
100
AcDbEntity
  8
0
100
AcDbLine
 10
111.1956614477862
 20
113.5754294428277
 30
0.0
 11
107.8915306792531
 21
113.5754294428277
 31
0.0
  0
LINE
  5
4C8
330
492
100
AcDbEntity
  8
0
100
AcDbLine
 10
112.6612156881187
 20
115.066874671865
 30
0.0
 11
112.6612156881187
 21
121.7004294428274
 31
0.0
  0
ARC
  5
4C9
330
492
100
AcDbEntity
  8
0
100
AcDbCircle
 10
97.82486186631297
 20
114.8000041243437
 30
0.0
 40
16.36255677764882
100
AcDbArc
 50
355.7079675833282
 51
24.94325639894145
  0
ARC
  5
4CA
330
492
100
AcDbEntity
  8
0
100
AcDbCircle
 10
127.2817217816346
 20
114.8685670653704
 30
0.0
 40
16.13795346303392
100
AcDbArc
 50
154.9542811059666
 51
184.5960503276704
  0
ARC
  5
4CB
330
492
100
AcDbEntity
  8
0
100
AcDbCircle
 10
132.6614570911667
 20
113.7160303025229
 30
0.0
 40
15.04639147761523
100
AcDbArc
 50
156.0438415826602
 51
180.5354076498431
  0
ARC
  5
4CC
330
492
100
AcDbEntity
  8
0
100
AcDbCircle
 10
105.1609742850706
 20
113.7160303025229
 30
0.0
 40
15.04639147761535
100
AcDbArc
 50
359.4645923501575
 51
23.95615841733967
  0
LINE
  5
4CD
330
492
100
AcDbEntity
  8
0
100
AcDbLine
 10
125.1612156881187
 20
115.066874671865
 30
0.0
 11
124.2237156881187
 21
113.5754294428277
 31
0.0
  0
LINE
  5
4CE
330
492
100
AcDbEntity
  8
0
100
AcDbLine
 10
125.1612156881187
 20
115.066874671865
 30
0.0
 11
126.0987156881187
 21
113.5754294428277
 31
0.0
  0
LINE
  5
4CF
330
492
100
AcDbEntity
  8
0
100
AcDbLine
 10
126.0987156881187
 20
113.5754294428277
 30
0.0
 11
125.4639023160507
 21
112.4112256442652
 31
0.0
  0
ARC
  5
4D0
330
492
100
AcDbEntity
  8
0
100
AcDbCircle
 10
125.1895394563929
 20
112.560829358258
 30
0.0
 40
0.3125
100
AcDbArc
 50
210.6986939397648
 51
331.3973878795293
  0
LINE
  5
4D1
330
492
100
AcDbEntity
  8
0
100
AcDbLine
 10
124.92083198476
 20
112.4012908215698
 30
0.0
 11
124.2237156881187
 21
113.5754294428277
 31
0.0
  0
LINE
  5
4D2
330
492
100
AcDbEntity
  8
0
100
AcDbLine
 10
120.2067088266578
 20
113.5754294428277
 30
0.0
 11
119.5073775020137
 21
112.1073588641211
 31
0.0
  0
ARC
  5
4D3
330
492
100
AcDbEntity
  8
0
100
AcDbCircle
 10
119.225252248879
 20
112.2417522848816
 30
0.0
 40
0.3125
100
AcDbArc
 50
270.0
 51
334.5286989112379
  0
LINE
  5
4D4
330
492
100
AcDbEntity
  8
0
100
AcDbLine
 10
119.225252248879
 20
111.9292522848816
 30
0.0
 11
118.5971791273584
 21
111.9292522848816
 31
0.0
  0
LINE
  5
4D5
330
492
100
AcDbEntity
  8
0
100
AcDbLine
 10
118.3150538742238
 20
112.1073588641211
 30
0.0
 11
117.6157225495797
 21
113.5754294428277
 31
0.0
  0
ARC
  5
4D6
330
492
100
AcDbEntity
  8
0
100
AcDbCircle
 10
118.5971791273584
 20
112.2417522848816
 30
0.0
 40
0.3125
100
AcDbArc
 50
205.4713010887621
 51
270.0
  0
LINE
  5
4D7
330
492
100
AcDbEntity
  8
0
100
AcDbLine
 10
118.9112156881187
 20
119.8254294428277
 30
0.0
 11
118.9112156881187
 21
115.066874671865
 31
0.0
  0
LINE
  5
4D8
330
492
100
AcDbEntity
  8
0
100
AcDbLine
 10
118.9112156881187
 20
115.066874671865
 30
0.0
 11
120.2067088266578
 21
113.5754294428277
 31
0.0
  0
LINE
  5
4D9
330
492
100
AcDbEntity
  8
0
100
AcDbLine
 10
118.9112156881187
 20
115.066874671865
 30
0.0
 11
117.6157225495797
 21
113.5754294428277
 31
0.0
  0
LINE
  5
4DA
330
492
100
AcDbEntity
  8
0
100
AcDbLine
 10
112.6612156881187
 20
115.066874671865
 30
0.0
 11
114.1415306792531
 21
113.5754294428277
 31
0.0
  0
LINE
  5
4DB
330
492
100
AcDbEntity
  8
0
100
AcDbLine
 10
112.6612156881187
 20
115.066874671865
 30
0.0
 11
111.1956614477862
 21
113.5754294428277
 31
0.0
  0
LINE
  5
4DC
330
492
100
AcDbEntity
  8
0
100
AcDbLine
 10
114.1415306792531
 20
113.5754294428277
 30
0.0
 11
113.2573775020137
 21
112.1073588641211
 31
0.0
  0
ARC
  5
4DD
330
492
100
AcDbEntity
  8
0
100
AcDbCircle
 10
112.975252248879
 20
112.2417522848816
 30
0.0
 40
0.3125
100
AcDbArc
 50
270.0
 51
334.5286989112379
  0
LINE
  5
4DE
330
492
100
AcDbEntity
  8
0
100
AcDbLine
 10
112.975252248879
 20
111.9292522848816
 30
0.0
 11
112.3471791273584
 21
111.9292522848816
 31
0.0
  0
LINE
  5
4DF
330
492
100
AcDbEntity
  8
0
100
AcDbLine
 10
112.0650538742238
 20
112.1073588641211
 30
0.0
 11
111.1956614477862
 21
113.5754294428277
 31
0.0
  0
ARC
  5
4E0
330
492
100
AcDbEntity
  8
0
100
AcDbCircle
 10
112.3471791273584
 20
112.2417522848816
 30
0.0
 40
0.3125
100
AcDbArc
 50
205.4713010887621
 51
270.0
  0
ENDBLK
  5
494
330
492
100
AcDbEntity
  8
0
100
AcDbBlockEnd
  0
ENDSEC
  0
SECTION
  2
ENTITIES
  0
INSERT
  5
491
330
1F
100
AcDbEntity
  8
0
100
AcDbBlockReference
  2
fgtrz
 10
-81.41121568811879
 20
-34.60903912637869
 30
0.0
  0
INSERT
  5
4E1
330
1F
100
AcDbEntity
  8
0
100
AcDbBlockReference
  2
w54656
 10
-81.41121568811879
 20
-34.60903912637869
 30
0.0
  0
ENDSEC
  0
SECTION
  2
OBJECTS
  0
DICTIONARY
  5
C
330
0
100
AcDbDictionary
281
     1
  3
ACAD_COLOR
350
73
  3
ACAD_GROUP
350
D
  3
ACAD_LAYOUT
350
1A
  3
ACAD_MATERIAL
350
72
  3
ACAD_MLEADERSTYLE
350
D7
  3
ACAD_MLINESTYLE
350
17
  3
ACAD_PLOTSETTINGS
350
19
  3
ACAD_PLOTSTYLENAME
350
E
  3
ACAD_SCALELIST
350
B6
  3
ACAD_TABLESTYLE
350
86
  3
ACAD_VISUALSTYLE
350
99
  3
ACDB_RECOMPOSE_DATA
350
FF
  3
AcDbVariableDictionary
350
66
  3
AEC_PROPERTY_SET_DEFS
350
523
  3
DWGPROPS
350
52A
  3
qs_topprt_diz
350
4EA
  3
QSCATDICT
350
4E7
  3
QsPallStyleDict
350
4E9
  3
QsTop499
350
4EE
  3
TopSpotLight
350
4F1
  0
DICTIONARY
  5
E6
330
10
100
AcDbDictionary
280
     1
281
     1
  3
ADSK_XREC_LAYER_RECONCILED
360
1CF
  0
DICTIONARY
  5
169
330
1F
100
AcDbDictionary
280
     1
281
     1
  3
ACAD_SORTENTS
360
16A
  0
DICTIONARY
  5
73
102
{ACAD_REACTORS
330
C
102
}
330
C
100
AcDbDictionary
281
     1
  0
DICTIONARY
  5
D
102
{ACAD_REACTORS
330
C
102
}
330
C
100
AcDbDictionary
281
     1
  0
DICTIONARY
  5
1A
102
{ACAD_REACTORS
330
C
102
}
330
C
100
AcDbDictionary
281
     1
  3
Layout1
350
59
  3
Layout2
350
5E
  3
Model
350
22
  0
DICTIONARY
  5
72
102
{ACAD_REACTORS
330
C
102
}
330
C
100
AcDbDictionary
281
     1
  3
ByBlock
350
97
  3
ByLayer
350
96
  3
Global
350
98
  0
DICTIONARY
  5
D7
102
{ACAD_REACTORS
330
C
102
}
330
C
100
AcDbDictionary
281
     1
  3
Annotative
350
E5
  3
Standard
350
D8
  0
DICTIONARY
  5
17
102
{ACAD_REACTORS
330
C
102
}
330
C
100
AcDbDictionary
281
     1
  3
Standard
350
18
  0
DICTIONARY
  5
19
102
{ACAD_REACTORS
330
C
102
}
330
C
100
AcDbDictionary
281
     1
  0
ACDBDICTIONARYWDFLT
  5
E
102
{ACAD_REACTORS
330
C
102
}
330
C
100
AcDbDictionary
281
     1
  3
Normal
350
F
100
AcDbDictionaryWithDefault
340
F
  0
DICTIONARY
  5
B6
102
{ACAD_REACTORS
330
C
102
}
330
C
100
AcDbDictionary
281
     1
  3
A0
350
B7
  3
A1
350
124
  3
A2
350
125
  3
A3
350
126
  3
A4
350
127
  3
A5
350
128
  3
A6
350
129
  3
A7
350
12A
  3
A8
350
12B
  3
A9
350
12C
  3
B0
350
12D
  3
B1
350
12E
  3
B2
350
12F
  3
B3
350
130
  3
B4
350
131
  3
B5
350
132
  3
B6
350
133
  3
B7
350
134
  3
B8
350
135
  3
B9
350
136
  3
C0
350
137
  3
C1
350
138
  3
C2
350
139
  3
C3
350
13A
  3
C4
350
13B
  3
C5
350
13C
  3
C6
350
13D
  3
C7
350
13E
  3
C8
350
13F
  3
C9
350
140
  3
D0
350
141
  3
D1
350
142
  3
D2
350
143
  0
DICTIONARY
  5
86
102
{ACAD_REACTORS
330
C
102
}
330
C
100
AcDbDictionary
281
     1
  3
Standard
350
87
  0
DICTIONARY
  5
99
102
{ACAD_REACTORS
330
C
102
}
330
C
100
AcDbDictionary
281
     1
  3
2dWireframe
350
9F
  3
3D Hidden
350
A1
  3
3dWireframe
350
A0
  3
Basic
350
9E
  3
Brighten
350
A5
  3
ColorChange
350
A9
  3
Conceptual
350
A2
  3
Dim
350
A4
  3
Facepattern
350
A8
  3
Flat
350
9A
  3
FlatWithEdges
350
9B
  3
Gouraud
350
9C
  3
GouraudWithEdges
350
9D
  3
Linepattern
350
A7
  3
Realistic
350
A3
  3
Thicken
350
A6
  0
XRECORD
  5
FF
102
{ACAD_REACTORS
330
C
102
}
330
C
100
AcDbXrecord
280
     1
 90
        1
330
87
  0
DICTIONARY
  5
66
102
{ACAD_REACTORS
330
C
102
}
330
C
100
AcDbDictionary
281
     1
  3
CANNOSCALE
350
F0
  3
CMLEADERSTYLE
350
EF
  3
CTABLESTYLE
350
89
  3
DIMASSOC
350
67
  3
DRAWORDERCTL
350
524
  3
HIDETEXT
350
6B
  3
INDEXCTL
350
528
  3
LAYEREVAL
350
2FC
  3
LAYERNOTIFY
350
2FD
  3
LIGHTINGUNITS
350
526
  3
MSLTSCALE
350
525
  3
SORTENTS
350
527
  0
DICTIONARY
  5
523
102
{ACAD_REACTORS
330
C
102
}
330
C
100
AcDbDictionary
281
     1
  0
XRECORD
  5
52A
102
{ACAD_REACTORS
330
C
102
}
330
C
100
AcDbXrecord
280
     1
  1
DWGPROPS COOKIE
  2

  3

  4

  6

  7

  8
CostenieroM
  9

300
=
301
=
302
=
303
=
304
=
305
=
306
=
307
=
308
=
309
=
 40
0.0246781944444445
 41
2455155.398003287
 42
2455264.495093241
  1

 90
        0
  0
DICTIONARY
  5
4EA
102
{ACAD_REACTORS
330
C
102
}
330
C
100
AcDbDictionary
281
     1
  3
UCNT
350
4EB
  0
DICTIONARY
  5
4E7
102
{ACAD_REACTORS
330
C
102
}
330
C
100
AcDbDictionary
281
     1
  3
DEFAULT
350
4E8
  0
DICTIONARY
  5
4E9
102
{ACAD_REACTORS
330
C
102
}
330
C
100
AcDbDictionary
281
     1
  0
DICTIONARY
  5
4EE
102
{ACAD_REACTORS
330
C
102
}
330
C
100
AcDbDictionary
281
     1
  3
TOP
350
4F0
  3
X3920
350
4EF
  0
DICTIONARY
  5
4F1
102
{ACAD_REACTORS
330
C
102
}
330
C
100
AcDbDictionary
281
     1
  3
colors
350
4F2
  0
XRECORD
  5
1CF
102
{ACAD_REACTORS
330
E6
102
}
330
E6
100
AcDbXrecord
280
     1
290
     1
  0
SORTENTSTABLE
  5
16A
102
{ACAD_REACTORS
330
169
102
}
330
169
100
AcDbSortentsTable
330
1F
  0
LAYOUT
  5
59
102
{ACAD_XDICTIONARY
360
52D
102
}
102
{ACAD_REACTORS
330
1A
102
}
330
1A
100
AcDbPlotSettings
  1

  2
None
  4

  6

 40
0.0
 41
0.0
 42
0.0
 43
0.0
 44
0.0
 45
0.0
 46
0.0
 47
0.0
 48
0.0
 49
0.0
140
0.0
141
0.0
142
1.0
143
1.0
 70
   688
 72
     0
 73
     0
 74
     5
  7

 75
    16
147
1.0
148
0.0
149
0.0
100
AcDbLayout
  1
Layout1
 70
     1
 71
     1
 10
0.0
 20
0.0
 11
12.0
 21
9.0
 12
0.0
 22
0.0
 32
0.0
 14
0.0
 24
0.0
 34
0.0
 15
0.0
 25
0.0
 35
0.0
146
0.0
 13
0.0
 23
0.0
 33
0.0
 16
1.0
 26
0.0
 36
0.0
 17
0.0
 27
1.0
 37
0.0
 76
     0
330
58
  0
LAYOUT
  5
5E
102
{ACAD_XDICTIONARY
360
52F
102
}
102
{ACAD_REACTORS
330
1A
102
}
330
1A
100
AcDbPlotSettings
  1

  2
None
  4

  6

 40
0.0
 41
0.0
 42
0.0
 43
0.0
 44
0.0
 45
0.0
 46
0.0
 47
0.0
 48
0.0
 49
0.0
140
0.0
141
0.0
142
1.0
143
1.0
 70
   688
 72
     0
 73
     0
 74
     5
  7

 75
    16
147
1.0
148
0.0
149
0.0
100
AcDbLayout
  1
Layout2
 70
     1
 71
     2
 10
0.0
 20
0.0
 11
12.0
 21
9.0
 12
0.0
 22
0.0
 32
0.0
 14
0.0
 24
0.0
 34
0.0
 15
0.0
 25
0.0
 35
0.0
146
0.0
 13
0.0
 23
0.0
 33
0.0
 16
1.0
 26
0.0
 36
0.0
 17
0.0
 27
1.0
 37
0.0
 76
     0
330
5D
  0
LAYOUT
  5
22
102
{ACAD_XDICTIONARY
360
52B
102
}
102
{ACAD_REACTORS
330
1A
102
}
330
1A
100
AcDbPlotSettings
  1

  2
none_device
  4
ANSI_A_(8.50_x_11.00_Inches)
  6

 40
6.349999904632568
 41
19.04999923706055
 42
6.350006103515625
 43
19.04998779296875
 44
215.8999938964844
 45
279.3999938964844
 46
0.0
 47
0.0
 48
0.0
 49
0.0
140
0.0
141
0.0
142
1.0
143
2.584895464708373
 70
 11952
 72
     0
 73
     1
 74
     0
  7

 75
     0
147
0.3868628397755418
148
0.0
149
0.0
100
AcDbLayout
  1
Model
 70
     1
 71
     0
 10
0.0
 20
0.0
 11
12.0
 21
9.0
 12
0.0
 22
0.0
 32
0.0
 14
0.0
 24
0.0
 34
0.0
 15
0.0
 25
0.0
 35
0.0
146
0.0
 13
0.0
 23
0.0
 33
0.0
 16
1.0
 26
0.0
 36
0.0
 17
0.0
 27
1.0
 37
0.0
 76
     0
330
1F
331
94
  0
MATERIAL
  5
97
102
{ACAD_XDICTIONARY
360
534
102
}
102
{ACAD_REACTORS
330
72
102
}
330
72
100
AcDbMaterial
  1
ByBlock
  0
MATERIAL
  5
96
102
{ACAD_XDICTIONARY
360
532
102
}
102
{ACAD_REACTORS
330
72
102
}
330
72
100
AcDbMaterial
  1
ByLayer
  0
MATERIAL
  5
98
102
{ACAD_XDICTIONARY
360
110
102
}
102
{ACAD_REACTORS
330
72
102
}
330
72
100
AcDbMaterial
  1
Global
 43
0.0208000000566244
 43
0.0
 43
0.0
 43
0.0
 43
0.0
 43
0.0208000000566244
 43
0.0
 43
0.0
 43
0.0
 43
0.0
 43
1.0
 43
0.0
 43
0.0
 43
0.0
 43
0.0
 43
1.0
 49
0.0208000000566244
 49
0.0
 49
0.0
 49
0.0
 49
0.0
 49
0.0208000000566244
 49
0.0
 49
0.0
 49
0.0
 49
0.0
 49
1.0
 49
0.0
 49
0.0
 49
0.0
 49
0.0
 49
1.0
142
0.0208000000566244
142
0.0
142
0.0
142
0.0
142
0.0
142
0.0208000000566244
142
0.0
142
0.0
142
0.0
142
0.0
142
1.0
142
0.0
142
0.0
142
0.0
142
0.0
142
1.0
144
0.0208000000566244
144
0.0
144
0.0
144
0.0
144
0.0
144
0.0208000000566244
144
0.0
144
0.0
144
0.0
144
0.0
144
1.0
144
0.0
144
0.0
144
0.0
144
0.0
144
1.0
1001
ACAD
1070
    -1
1070
     3
1070
     0
1000

1071
        0
1070
     0
  0
MLEADERSTYLE
  5
E5
102
{ACAD_REACTORS
330
D7
102
}
330
D7
100
AcDbMLeaderStyle
170
     2
171
     1
172
     0
 90
        2
 40
0.0
 41
0.0
173
     1
 91
-1056964608
340
14
 92
       -2
290
     1
 42
0.09
291
     1
 43
0.36
  3
Standard
 44
0.18
300

342
11
174
     1
178
     1
175
     1
176
     0
 93
-1056964608
 45
0.18
292
     0
297
     0
 46
0.18
 94
-1056964608
 47
1.0
 49
1.0
140
1.0
293
     1
141
0.0
294
     1
177
     0
142
1.0
295
     0
296
     1
143
0.125
1001
ACAD_MLEADERVER
1070
     2
  0
MLEADERSTYLE
  5
D8
102
{ACAD_REACTORS
330
D7
102
}
330
D7
100
AcDbMLeaderStyle
170
     2
171
     1
172
     0
 90
        2
 40
0.0
 41
0.0
173
     1
 91
-1056964608
340
14
 92
       -2
290
     1
 42
0.09
291
     1
 43
0.36
  3
Standard
 44
0.18
300

342
11
174
     1
178
     1
175
     1
176
     0
 93
-1056964608
 45
0.18
292
     0
297
     0
 46
0.18
 94
-1056964608
 47
1.0
 49
1.0
140
1.0
293
     1
141
0.0
294
     1
177
     0
142
1.0
295
     0
296
     0
143
0.125
1001
ACAD_MLEADERVER
1070
     2
  0
MLINESTYLE
  5
18
102
{ACAD_REACTORS
330
17
102
}
330
17
100
AcDbMlineStyle
  2
STANDARD
 70
     0
  3

 62
   256
 51
90.0
 52
90.0
 71
     2
 49
0.5
 62
   256
  6
BYLAYER
 49
-0.5
 62
   256
  6
BYLAYER
  0
ACDBPLACEHOLDER
  5
F
102
{ACAD_REACTORS
330
E
102
}
330
E
  0
SCALE
  5
B7
102
{ACAD_REACTORS
330
B6
102
}
330
B6
100
AcDbScale
 70
     0
300
1:1
140
1.0
141
1.0
290
     1
  0
SCALE
  5
124
102
{ACAD_REACTORS
330
B6
102
}
330
B6
100
AcDbScale
 70
     0
300
1:2
140
1.0
141
2.0
290
     0
  0
SCALE
  5
125
102
{ACAD_REACTORS
330
B6
102
}
330
B6
100
AcDbScale
 70
     0
300
1:4
140
1.0
141
4.0
290
     0
  0
SCALE
  5
126
102
{ACAD_REACTORS
330
B6
102
}
330
B6
100
AcDbScale
 70
     0
300
1:5
140
1.0
141
5.0
290
     0
  0
SCALE
  5
127
102
{ACAD_REACTORS
330
B6
102
}
330
B6
100
AcDbScale
 70
     0
300
1:8
140
1.0
141
8.0
290
     0
  0
SCALE
  5
128
102
{ACAD_REACTORS
330
B6
102
}
330
B6
100
AcDbScale
 70
     0
300
1:10
140
1.0
141
10.0
290
     0
  0
SCALE
  5
129
102
{ACAD_REACTORS
330
B6
102
}
330
B6
100
AcDbScale
 70
     0
300
1:16
140
1.0
141
16.0
290
     0
  0
SCALE
  5
12A
102
{ACAD_REACTORS
330
B6
102
}
330
B6
100
AcDbScale
 70
     0
300
1:20
140
1.0
141
20.0
290
     0
  0
SCALE
  5
12B
102
{ACAD_REACTORS
330
B6
102
}
330
B6
100
AcDbScale
 70
     0
300
1:30
140
1.0
141
30.0
290
     0
  0
SCALE
  5
12C
102
{ACAD_REACTORS
330
B6
102
}
330
B6
100
AcDbScale
 70
     0
300
1:40
140
1.0
141
40.0
290
     0
  0
SCALE
  5
12D
102
{ACAD_REACTORS
330
B6
102
}
330
B6
100
AcDbScale
 70
     0
300
1:50
140
1.0
141
50.0
290
     0
  0
SCALE
  5
12E
102
{ACAD_REACTORS
330
B6
102
}
330
B6
100
AcDbScale
 70
     0
300
1:100
140
1.0
141
100.0
290
     0
  0
SCALE
  5
12F
102
{ACAD_REACTORS
330
B6
102
}
330
B6
100
AcDbScale
 70
     0
300
2:1
140
2.0
141
1.0
290
     0
  0
SCALE
  5
130
102
{ACAD_REACTORS
330
B6
102
}
330
B6
100
AcDbScale
 70
     0
300
4:1
140
4.0
141
1.0
290
     0
  0
SCALE
  5
131
102
{ACAD_REACTORS
330
B6
102
}
330
B6
100
AcDbScale
 70
     0
300
8:1
140
8.0
141
1.0
290
     0
  0
SCALE
  5
132
102
{ACAD_REACTORS
330
B6
102
}
330
B6
100
AcDbScale
 70
     0
300
10:1
140
10.0
141
1.0
290
     0
  0
SCALE
  5
133
102
{ACAD_REACTORS
330
B6
102
}
330
B6
100
AcDbScale
 70
     0
300
100:1
140
100.0
141
1.0
290
     0
  0
SCALE
  5
134
102
{ACAD_REACTORS
330
B6
102
}
330
B6
100
AcDbScale
 70
     0
300
1/128" = 1'-0"
140
0.0078125
141
12.0
290
     0
  0
SCALE
  5
135
102
{ACAD_REACTORS
330
B6
102
}
330
B6
100
AcDbScale
 70
     0
300
1/64" = 1'-0"
140
0.015625
141
12.0
290
     0
  0
SCALE
  5
136
102
{ACAD_REACTORS
330
B6
102
}
330
B6
100
AcDbScale
 70
     0
300
1/32" = 1'-0"
140
0.03125
141
12.0
290
     0
  0
SCALE
  5
137
102
{ACAD_REACTORS
330
B6
102
}
330
B6
100
AcDbScale
 70
     0
300
1/16" = 1'-0"
140
0.0625
141
12.0
290
     0
  0
SCALE
  5
138
102
{ACAD_REACTORS
330
B6
102
}
330
B6
100
AcDbScale
 70
     0
300
3/32" = 1'-0"
140
0.09375
141
12.0
290
     0
  0
SCALE
  5
139
102
{ACAD_REACTORS
330
B6
102
}
330
B6
100
AcDbScale
 70
     0
300
1/8" = 1'-0"
140
0.125
141
12.0
290
     0
  0
SCALE
  5
13A
102
{ACAD_REACTORS
330
B6
102
}
330
B6
100
AcDbScale
 70
     0
300
3/16" = 1'-0"
140
0.1875
141
12.0
290
     0
  0
SCALE
  5
13B
102
{ACAD_REACTORS
330
B6
102
}
330
B6
100
AcDbScale
 70
     0
300
1/4" = 1'-0"
140
0.25
141
12.0
290
     0
  0
SCALE
  5
13C
102
{ACAD_REACTORS
330
B6
102
}
330
B6
100
AcDbScale
 70
     0
300
3/8" = 1'-0"
140
0.375
141
12.0
290
     0
  0
SCALE
  5
13D
102
{ACAD_REACTORS
330
B6
102
}
330
B6
100
AcDbScale
 70
     0
300
1/2" = 1'-0"
140
0.5
141
12.0
290
     0
  0
SCALE
  5
13E
102
{ACAD_REACTORS
330
B6
102
}
330
B6
100
AcDbScale
 70
     0
300
3/4" = 1'-0"
140
0.75
141
12.0
290
     0
  0
SCALE
  5
13F
102
{ACAD_REACTORS
330
B6
102
}
330
B6
100
AcDbScale
 70
     0
300
1" = 1'-0"
140
1.0
141
12.0
290
     0
  0
SCALE
  5
140
102
{ACAD_REACTORS
330
B6
102
}
330
B6
100
AcDbScale
 70
     0
300
1-1/2" = 1'-0"
140
1.5
141
12.0
290
     0
  0
SCALE
  5
141
102
{ACAD_REACTORS
330
B6
102
}
330
B6
100
AcDbScale
 70
     0
300
3" = 1'-0"
140
3.0
141
12.0
290
     0
  0
SCALE
  5
142
102
{ACAD_REACTORS
330
B6
102
}
330
B6
100
AcDbScale
 70
     0
300
6" = 1'-0"
140
6.0
141
12.0
290
     0
  0
SCALE
  5
143
102
{ACAD_REACTORS
330
B6
102
}
330
B6
100
AcDbScale
 70
     0
300
1'-0" = 1'-0"
140
12.0
141
12.0
290
     0
  0
TABLESTYLE
  5
87
102
{ACAD_XDICTIONARY
360
104
102
}
102
{ACAD_REACTORS
330
86
102
}
330
86
100
AcDbTableStyle
  3
Standard
 70
     0
 71
     0
 40
0.06
 41
0.06
280
     0
281
     0
  7
Standard
140
0.18
170
     2
 62
     0
 63
     7
283
     0
274
    -2
284
     1
 64
     0
275
    -2
285
     1
 65
     0
276
    -2
286
     1
 66
     0
277
    -2
287
     1
 67
     0
278
    -2
288
     1
 68
     0
279
    -2
289
     1
 69
     0
  7
Standard
140
0.25
170
     5
 62
     0
 63
     7
283
     0
274
    -2
284
     1
 64
     0
275
    -2
285
     1
 65
     0
276
    -2
286
     1
 66
     0
277
    -2
287
     1
 67
     0
278
    -2
288
     1
 68
     0
279
    -2
289
     1
 69
     0
  7
Standard
140
0.18
170
     5
 62
     0
 63
     7
283
     0
274
    -2
284
     1
 64
     0
275
    -2
285
     1
 65
     0
276
    -2
286
     1
 66
     0
277
    -2
287
     1
 67
     0
278
    -2
288
     1
 68
     0
279
    -2
289
     1
 69
     0
  0
VISUALSTYLE
  5
9F
102
{ACAD_REACTORS
330
99
102
}
330
99
100
AcDbVisualStyle
  2
2dWireframe
 70
     4
 71
     0
 72
     2
 73
     1
 90
        0
 40
-0.6
 41
-30.0
 62
     5
 63
     7
 74
     1
 91
        4
 64
     7
 65
   257
 75
     1
175
     1
 42
1.0
 92
        0
 66
   257
 43
1.0
 76
     1
 77
     6
 78
     2
 67
     7
 79
     5
170
     0
171
     0
290
     0
174
     0
 93
        1
 44
0.0
173
     0
291
     0
 45
0.0
1001
ACAD
1000
AcDbSavedByObjectVersion
1070
     0
  0
VISUALSTYLE
  5
A1
102
{ACAD_REACTORS
330
99
102
}
330
99
100
AcDbVisualStyle
  2
3D Hidden
 70
     6
 71
     1
 72
     2
 73
     2
 90
        0
 40
-0.6
 41
-30.0
 62
     5
 63
     7
 74
     2
 91
        2
 64
     7
 65
   257
 75
     2
175
     1
 42
40.0
 92
        0
 66
   257
 43
1.0
 76
     1
 77
     6
 78
     2
 67
     7
 79
     3
170
     0
171
     0
290
     0
174
     0
 93
        1
 44
0.0
173
     0
291
     0
 45
0.0
1001
ACAD
1000
AcDbSavedByObjectVersion
1070
     0
  0
VISUALSTYLE
  5
A0
102
{ACAD_REACTORS
330
99
102
}
330
99
100
AcDbVisualStyle
  2
3dWireframe
 70
     5
 71
     0
 72
     2
 73
     1
 90
        0
 40
-0.6
 41
-30.0
 62
     5
 63
     7
 74
     1
 91
        4
 64
     7
 65
   257
 75
     1
175
     1
 42
1.0
 92
        0
 66
   257
 43
1.0
 76
     1
 77
     6
 78
     2
 67
     7
 79
     5
170
     0
171
     0
290
     0
174
     0
 93
        1
 44
0.0
173
     0
291
     0
 45
0.0
1001
ACAD
1000
AcDbSavedByObjectVersion
1070
     0
  0
VISUALSTYLE
  5
9E
102
{ACAD_REACTORS
330
99
102
}
330
99
100
AcDbVisualStyle
  2
Basic
 70
     7
 71
     1
 72
     0
 73
     1
 90
        0
 40
-0.6
 41
-30.0
 62
     5
 63
     7
 74
     0
 91
        4
 64
     7
 65
   257
 75
     1
175
     1
 42
1.0
 92
        8
 66
     7
 43
1.0
 76
     1
 77
     6
 78
     2
 67
     7
 79
     5
170
     0
171
     0
290
     0
174
     0
 93
        1
 44
0.0
173
     0
291
     1
 45
0.0
1001
ACAD
1000
AcDbSavedByObjectVersion
1070
     0
  0
VISUALSTYLE
  5
A5
102
{ACAD_REACTORS
330
99
102
}
330
99
100
AcDbVisualStyle
  2
Brighten
 70
    12
 71
     2
 72
     2
 73
     1
 90
        0
 40
-0.6
 41
-30.0
 62
     5
 63
     7
 74
     1
 91
        4
 64
     7
 65
   257
 75
     1
175
     1
 42
1.0
 92
        8
 66
     7
 43
1.0
 76
     1
 77
     6
 78
     2
 67
     7
 79
     5
170
     0
171
     0
290
     0
174
     0
 93
        1
 44
50.0
173
     0
291
     1
 45
0.0
1001
ACAD
1000
AcDbSavedByObjectVersion
1070
     0
  0
VISUALSTYLE
  5
A9
102
{ACAD_REACTORS
330
99
102
}
330
99
100
AcDbVisualStyle
  2
ColorChange
 70
    16
 71
     2
 72
     2
 73
     3
 90
        0
 40
-0.6
 41
-30.0
 62
     5
 63
     8
 74
     1
 91
        4
 64
     7
 65
   257
 75
     1
175
     1
 42
1.0
 92
        8
 66
     8
 43
1.0
 76
     1
 77
     6
 78
     2
 67
     7
 79
     5
170
     0
171
     0
290
     0
174
     0
 93
        1
 44
0.0
173
     0
291
     1
 45
0.0
1001
ACAD
1000
AcDbSavedByObjectVersion
1070
     0
  0
VISUALSTYLE
  5
A2
102
{ACAD_REACTORS
330
99
102
}
330
99
100
AcDbVisualStyle
  2
Conceptual
 70
     9
 71
     3
 72
     2
 73
     1
 90
        0
 40
-0.6
 41
-30.0
 62
     5
 63
     7
 74
     2
 91
        2
 64
     7
 65
   257
 75
     1
175
     1
 42
40.0
 92
        8
 66
     7
 43
1.0
 76
     1
 77
     6
 78
     2
 67
     7
 79
     3
170
     0
171
     0
290
     0
174
     0
 93
        1
 44
0.0
173
     0
291
     0
 45
0.0
1001
ACAD
1000
AcDbSavedByObjectVersion
1070
     0
  0
VISUALSTYLE
  5
A4
102
{ACAD_REACTORS
330
99
102
}
330
99
100
AcDbVisualStyle
  2
Dim
 70
    11
 71
     2
 72
     2
 73
     1
 90
        0
 40
-0.6
 41
-30.0
 62
     5
 63
     7
 74
     1
 91
        4
 64
     7
 65
   257
 75
     1
175
     1
 42
1.0
 92
        8
 66
     7
 43
1.0
 76
     1
 77
     6
 78
     2
 67
     7
 79
     5
170
     0
171
     0
290
     0
174
     0
 93
        1
 44
-50.0
173
     0
291
     1
 45
0.0
1001
ACAD
1000
AcDbSavedByObjectVersion
1070
     0
  0
VISUALSTYLE
  5
A8
102
{ACAD_REACTORS
330
99
102
}
330
99
100
AcDbVisualStyle
  2
Facepattern
 70
    15
 71
     2
 72
     2
 73
     1
 90
        0
 40
-0.6
 41
-30.0
 62
     5
 63
     7
 74
     1
 91
        4
 64
     7
 65
   257
 75
     1
175
     1
 42
1.0
 92
        8
 66
     7
 43
1.0
 76
     1
 77
     6
 78
     2
 67
     7
 79
     5
170
     0
171
     0
290
     0
174
     0
 93
        1
 44
0.0
173
     0
291
     1
 45
0.0
1001
ACAD
1000
AcDbSavedByObjectVersion
1070
     0
  0
VISUALSTYLE
  5
9A
102
{ACAD_REACTORS
330
99
102
}
330
99
100
AcDbVisualStyle
  2
Flat
 70
     0
 71
     2
 72
     1
 73
     1
 90
        2
 40
-0.6
 41
30.0
 62
     5
 63
     7
 74
     0
 91
        4
 64
     7
 65
   257
 75
     1
175
     1
 42
1.0
 92
        8
 66
     7
 43
1.0
 76
     1
 77
     6
 78
     2
 67
     7
 79
     5
170
     0
171
     0
290
     0
174
     0
 93
        1
 44
0.0
173
     0
291
     1
 45
0.0
1001
ACAD
1000
AcDbSavedByObjectVersion
1070
     0
  0
VISUALSTYLE
  5
9B
102
{ACAD_REACTORS
330
99
102
}
330
99
100
AcDbVisualStyle
  2
FlatWithEdges
 70
     1
 71
     2
 72
     1
 73
     1
 90
        2
 40
-0.6
 41
30.0
 62
     5
 63
     7
 74
     1
 91
        4
 64
     7
 65
   257
 75
     1
175
     1
 42
1.0
 92
        0
 66
   257
 43
1.0
 76
     1
 77
     6
 78
     2
 67
     7
 79
     5
170
     0
171
     0
290
     0
174
     0
 93
        1
 44
0.0
173
     0
291
     1
 45
0.0
1001
ACAD
1000
AcDbSavedByObjectVersion
1070
     0
  0
VISUALSTYLE
  5
9C
102
{ACAD_REACTORS
330
99
102
}
330
99
100
AcDbVisualStyle
  2
Gouraud
 70
     2
 71
     2
 72
     2
 73
     1
 90
        2
 40
-0.6
 41
30.0
 62
     5
 63
     7
 74
     0
 91
        4
 64
     7
 65
   257
 75
     1
175
     1
 42
1.0
 92
        0
 66
     7
 43
1.0
 76
     1
 77
     6
 78
     2
 67
     7
 79
     5
170
     0
171
     0
290
     0
174
     0
 93
        1
 44
0.0
173
     0
291
     1
 45
0.0
1001
ACAD
1000
AcDbSavedByObjectVersion
1070
     0
  0
VISUALSTYLE
  5
9D
102
{ACAD_REACTORS
330
99
102
}
330
99
100
AcDbVisualStyle
  2
GouraudWithEdges
 70
     3
 71
     2
 72
     2
 73
     1
 90
        2
 40
-0.6
 41
30.0
 62
     5
 63
     7
 74
     1
 91
        4
 64
     7
 65
   257
 75
     1
175
     1
 42
1.0
 92
        0
 66
   257
 43
1.0
 76
     1
 77
     6
 78
     2
 67
     7
 79
     5
170
     0
171
     0
290
     0
174
     0
 93
        1
 44
0.0
173
     0
291
     1
 45
0.0
1001
ACAD
1000
AcDbSavedByObjectVersion
1070
     0
  0
VISUALSTYLE
  5
A7
102
{ACAD_REACTORS
330
99
102
}
330
99
100
AcDbVisualStyle
  2
Linepattern
 70
    14
 71
     2
 72
     2
 73
     1
 90
        0
 40
-0.6
 41
-30.0
 62
     5
 63
     7
 74
     1
 91
        4
 64
     7
 65
   257
 75
     7
175
     7
 42
1.0
 92
        8
 66
     7
 43
1.0
 76
     1
 77
     6
 78
     2
 67
     7
 79
     5
170
     0
171
     0
290
     0
174
     0
 93
        1
 44
0.0
173
     0
291
     1
 45
0.0
1001
ACAD
1000
AcDbSavedByObjectVersion
1070
     0
  0
VISUALSTYLE
  5
A3
102
{ACAD_REACTORS
330
99
102
}
330
99
100
AcDbVisualStyle
  2
Realistic
 70
     8
 71
     2
 72
     2
 73
     1
 90
        0
 40
-0.6
 41
-30.0
 62
     5
 63
     7
 74
     1
 91
        0
 64
     7
 65
   257
 75
     1
175
     1
 42
1.0
 92
        8
 66
     8
 43
1.0
 76
     1
 77
     6
 78
     2
 67
     7
 79
     5
170
     0
171
     0
290
     0
174
     0
 93
       13
 44
0.0
173
     0
291
     0
 45
0.0
1001
ACAD
1000
AcDbSavedByObjectVersion
1070
     0
  0
VISUALSTYLE
  5
A6
102
{ACAD_REACTORS
330
99
102
}
330
99
100
AcDbVisualStyle
  2
Thicken
 70
    13
 71
     2
 72
     2
 73
     1
 90
        0
 40
-0.6
 41
-30.0
 62
     5
 63
     7
 74
     1
 91
        4
 64
     7
 65
   257
 75
     1
175
     1
 42
1.0
 92
       12
 66
     7
 43
1.0
 76
     1
 77
     6
 78
     2
 67
     7
 79
     5
170
     0
171
     0
290
     0
174
     0
 93
        1
 44
0.0
173
     0
291
     1
 45
0.0
1001
ACAD
1000
AcDbSavedByObjectVersion
1070
     0
  0
DICTIONARYVAR
  5
F0
102
{ACAD_REACTORS
330
66
102
}
330
66
100
DictionaryVariables
280
     0
  1
1:1
  0
DICTIONARYVAR
  5
EF
102
{ACAD_REACTORS
330
66
102
}
330
66
100
DictionaryVariables
280
     0
  1
STANDARD
  0
DICTIONARYVAR
  5
89
102
{ACAD_REACTORS
330
66
102
}
330
66
100
DictionaryVariables
280
     0
  1
STANDARD
  0
DICTIONARYVAR
  5
67
102
{ACAD_REACTORS
330
66
102
}
330
66
100
DictionaryVariables
280
     0
  1
2
  0
DICTIONARYVAR
  5
524
102
{ACAD_REACTORS
330
66
102
}
330
66
100
DictionaryVariables
280
     0
  1
0
  0
DICTIONARYVAR
  5
6B
102
{ACAD_REACTORS
330
66
102
}
330
66
100
DictionaryVariables
280
     0
  1
1
  0
DICTIONARYVAR
  5
528
102
{ACAD_REACTORS
330
66
102
}
330
66
100
DictionaryVariables
280
     0
  1
0
  0
DICTIONARYVAR
  5
2FC
102
{ACAD_REACTORS
330
66
102
}
330
66
100
DictionaryVariables
280
     0
  1
1
  0
DICTIONARYVAR
  5
2FD
102
{ACAD_REACTORS
330
66
102
}
330
66
100
DictionaryVariables
280
     0
  1
15
  0
DICTIONARYVAR
  5
526
102
{ACAD_REACTORS
330
66
102
}
330
66
100
DictionaryVariables
280
     0
  1
2
  0
DICTIONARYVAR
  5
525
102
{ACAD_REACTORS
330
66
102
}
330
66
100
DictionaryVariables
280
     0
  1
1
  0
DICTIONARYVAR
  5
527
102
{ACAD_REACTORS
330
66
102
}
330
66
100
DictionaryVariables
280
     0
  1
127
  0
XRECORD
  5
4EB
102
{ACAD_REACTORS
330
4EA
102
}
330
4EA
100
AcDbXrecord
280
     1
 91
        1
  0
ACDBQSCATEGORY
  5
4E8
102
{ACAD_REACTORS
330
4E7
102
}
330
4E7
100
AcQsCategory
 70
     1
300
DEFAULT
290
     1
291
     1
 90
        0
  0
XRECORD
  5
4F0
102
{ACAD_REACTORS
330
4EE
102
}
330
4EE
100
AcDbXrecord
280
     1
  9
X3920
  0
XRECORD
  5
4EF
102
{ACAD_REACTORS
330
4EE
102
}
330
4EE
100
AcDbXrecord
280
     1
  2
TOP
  3
P-0000
280
     1
310
6465736372697A696F6E6500544F5000444154410030382F30332F313000554D004EB00052455600300000
 10
0.0
 20
0.0
 30
0.0
  0
XRECORD
  5
4F2
102
{ACAD_REACTORS
330
4F1
102
}
330
4F1
100
AcDbXrecord
280
     1
 90
      202
 91
      144
  0
DICTIONARY
  5
52D
330
59
100
AcDbDictionary
280
     1
281
     1
  3
ACAD_XREC_ROUNDTRIP
360
52E
  0
DICTIONARY
  5
52F
330
5E
100
AcDbDictionary
280
     1
281
     1
  3
ACAD_XREC_ROUNDTRIP
360
530
  0
DICTIONARY
  5
52B
330
22
100
AcDbDictionary
280
     1
281
     1
  3
ACAD_XREC_ROUNDTRIP
360
52C
  0
DICTIONARY
  5
534
330
97
100
AcDbDictionary
280
     1
281
     1
  3
ACAD_XREC_ROUNDTRIP
360
535
  0
DICTIONARY
  5
532
330
96
100
AcDbDictionary
280
     1
281
     1
  3
ACAD_XREC_ROUNDTRIP
360
533
  0
DICTIONARY
  5
110
330
98
100
AcDbDictionary
280
     1
281
     1
  3
ACAD_XREC_ROUNDTRIP
360
536
  3
BUMPTILE
360
112
  3
DIFFUSETILE
360
111
  3
OPACITYTILE
360
113
  3
REFLECTIONTILE
360
114
  0
DICTIONARY
  5
104
330
87
100
AcDbDictionary
280
     1
281
     1
  3
ACAD_ROUNDTRIP_2008_TABLESTYLE_CELLSTYLEMAP
360
529
  3
ACAD_XREC_ROUNDTRIP
360
531
  0
XRECORD
  5
52E
102
{ACAD_REACTORS
330
52D
102
}
330
52D
100
AcDbXrecord
280
     1
102
SHADEPLOT
 70
     0
102
SHADEPLOTRESLEVEL
 70
     2
102
SHADEPLOTCUSTOMDPI
 70
   300
  0
XRECORD
  5
530
102
{ACAD_REACTORS
330
52F
102
}
330
52F
100
AcDbXrecord
280
     1
102
SHADEPLOT
 70
     0
102
SHADEPLOTRESLEVEL
 70
     2
102
SHADEPLOTCUSTOMDPI
 70
   300
  0
XRECORD
  5
52C
102
{ACAD_REACTORS
330
52B
102
}
330
52B
100
AcDbXrecord
280
     1
102
SHADEPLOT
 70
     0
102
SHADEPLOTRESLEVEL
 70
     2
102
SHADEPLOTCUSTOMDPI
 70
   300
  0
XRECORD
  5
535
102
{ACAD_REACTORS
330
534
102
}
330
534
100
AcDbXrecord
280
     1
102
MATERIAL
148
0.0
149
0.0
149
0.0
 93
        0
 94
       63
282
     0
 72
     1
 77
     1
171
     1
175
     1
179
     1
273
     0
  0
XRECORD
  5
533
102
{ACAD_REACTORS
330
532
102
}
330
532
100
AcDbXrecord
280
     1
102
MATERIAL
148
0.0
149
0.0
149
0.0
 93
        0
 94
       63
282
     0
 72
     1
 77
     1
171
     1
175
     1
179
     1
273
     0
  0
XRECORD
  5
536
102
{ACAD_REACTORS
330
110
102
}
330
110
100
AcDbXrecord
280
     1
102
MATERIAL
148
0.0
149
0.0
149
0.0
 93
        0
 94
       63
282
     0
 72
     1
 77
     1
171
     1
175
     1
179
     1
273
     0
  0
XRECORD
  5
112
102
{ACAD_REACTORS
330
110
102
}
330
110
100
AcDbXrecord
280
     1
270
     1
271
     1
  0
XRECORD
  5
111
102
{ACAD_REACTORS
330
110
102
}
330
110
100
AcDbXrecord
280
     1
270
     1
271
     1
  0
XRECORD
  5
113
102
{ACAD_REACTORS
330
110
102
}
330
110
100
AcDbXrecord
280
     1
270
     1
271
     1
  0
XRECORD
  5
114
102
{ACAD_REACTORS
330
110
102
}
330
110
100
AcDbXrecord
280
     1
270
     1
271
     1
  0
CELLSTYLEMAP
  5
529
102
{ACAD_REACTORS
330
104
102
}
330
104
100
AcDbCellStyleMap
 90
        3
300
CELLSTYLE
  1
TABLEFORMAT_BEGIN
 90
        5
170
     1
 91
        0
 92
    32768
 62
   257
 93
        1
300
CONTENTFORMAT
  1
CONTENTFORMAT_BEGIN
 90
        0
 91
        0
 92
      512
 93
        0
300

 40
0.0
140
1.0
 94
        5
 62
     0
340
11
144
0.25
309
CONTENTFORMAT_END
171
     1
301
MARGIN
  1
CELLMARGIN_BEGIN
 40
0.06
 40
0.06
 40
0.06
 40
0.06
 40
0.18
 40
0.18
309
CELLMARGIN_END
 94
        6
 95
        1
302
GRIDFORMAT
  1
GRIDFORMAT_BEGIN
 90
        0
 91
        1
 62
     0
 92
       -2
340
0
 93
        0
 40
0.045
309
GRIDFORMAT_END
 95
        2
302
GRIDFORMAT
  1
GRIDFORMAT_BEGIN
 90
        0
 91
        1
 62
     0
 92
       -2
340
0
 93
        0
 40
0.045
309
GRIDFORMAT_END
 95
        4
302
GRIDFORMAT
  1
GRIDFORMAT_BEGIN
 90
        0
 91
        1
 62
     0
 92
       -2
340
0
 93
        0
 40
0.045
309
GRIDFORMAT_END
 95
        8
302
GRIDFORMAT
  1
GRIDFORMAT_BEGIN
 90
        0
 91
        1
 62
     0
 92
       -2
340
0
 93
        0
 40
0.045
309
GRIDFORMAT_END
 95
       16
302
GRIDFORMAT
  1
GRIDFORMAT_BEGIN
 90
        0
 91
        1
 62
     0
 92
       -2
340
0
 93
        0
 40
0.045
309
GRIDFORMAT_END
 95
       32
302
GRIDFORMAT
  1
GRIDFORMAT_BEGIN
 90
        0
 91
        1
 62
     0
 92
       -2
340
0
 93
        0
 40
0.045
309
GRIDFORMAT_END
309
TABLEFORMAT_END
  1
CELLSTYLE_BEGIN
 90
        1
 91
        1
300
_TITLE
309
CELLSTYLE_END
300
CELLSTYLE
  1
TABLEFORMAT_BEGIN
 90
        5
170
     1
 91
        0
 92
        0
 62
   257
 93
        1
300
CONTENTFORMAT
  1
CONTENTFORMAT_BEGIN
 90
        0
 91
        0
 92
      512
 93
        0
300

 40
0.0
140
1.0
 94
        5
 62
     0
340
11
144
0.18
309
CONTENTFORMAT_END
171
     1
301
MARGIN
  1
CELLMARGIN_BEGIN
 40
0.06
 40
0.06
 40
0.06
 40
0.06
 40
0.18
 40
0.18
309
CELLMARGIN_END
 94
        6
 95
        1
302
GRIDFORMAT
  1
GRIDFORMAT_BEGIN
 90
        0
 91
        1
 62
     0
 92
       -2
340
0
 93
        0
 40
0.045
309
GRIDFORMAT_END
 95
        2
302
GRIDFORMAT
  1
GRIDFORMAT_BEGIN
 90
        0
 91
        1
 62
     0
 92
       -2
340
0
 93
        0
 40
0.045
309
GRIDFORMAT_END
 95
        4
302
GRIDFORMAT
  1
GRIDFORMAT_BEGIN
 90
        0
 91
        1
 62
     0
 92
       -2
340
0
 93
        0
 40
0.045
309
GRIDFORMAT_END
 95
        8
302
GRIDFORMAT
  1
GRIDFORMAT_BEGIN
 90
        0
 91
        1
 62
     0
 92
       -2
340
0
 93
        0
 40
0.045
309
GRIDFORMAT_END
 95
       16
302
GRIDFORMAT
  1
GRIDFORMAT_BEGIN
 90
        0
 91
        1
 62
     0
 92
       -2
340
0
 93
        0
 40
0.045
309
GRIDFORMAT_END
 95
       32
302
GRIDFORMAT
  1
GRIDFORMAT_BEGIN
 90
        0
 91
        1
 62
     0
 92
       -2
340
0
 93
        0
 40
0.045
309
GRIDFORMAT_END
309
TABLEFORMAT_END
  1
CELLSTYLE_BEGIN
 90
        2
 91
        1
300
_HEADER
309
CELLSTYLE_END
300
CELLSTYLE
  1
TABLEFORMAT_BEGIN
 90
        5
170
     1
 91
        0
 92
        0
 62
   257
 93
        1
300
CONTENTFORMAT
  1
CONTENTFORMAT_BEGIN
 90
        0
 91
        0
 92
      512
 93
        0
300

 40
0.0
140
1.0
 94
        2
 62
     0
340
11
144
0.18
309
CONTENTFORMAT_END
171
     1
301
MARGIN
  1
CELLMARGIN_BEGIN
 40
0.06
 40
0.06
 40
0.06
 40
0.06
 40
0.18
 40
0.18
309
CELLMARGIN_END
 94
        6
 95
        1
302
GRIDFORMAT
  1
GRIDFORMAT_BEGIN
 90
        0
 91
        1
 62
     0
 92
       -2
340
0
 93
        0
 40
0.045
309
GRIDFORMAT_END
 95
        2
302
GRIDFORMAT
  1
GRIDFORMAT_BEGIN
 90
        0
 91
        1
 62
     0
 92
       -2
340
0
 93
        0
 40
0.045
309
GRIDFORMAT_END
 95
        4
302
GRIDFORMAT
  1
GRIDFORMAT_BEGIN
 90
        0
 91
        1
 62
     0
 92
       -2
340
0
 93
        0
 40
0.045
309
GRIDFORMAT_END
 95
        8
302
GRIDFORMAT
  1
GRIDFORMAT_BEGIN
 90
        0
 91
        1
 62
     0
 92
       -2
340
0
 93
        0
 40
0.045
309
GRIDFORMAT_END
 95
       16
302
GRIDFORMAT
  1
GRIDFORMAT_BEGIN
 90
        0
 91
        1
 62
     0
 92
       -2
340
0
 93
        0
 40
0.045
309
GRIDFORMAT_END
 95
       32
302
GRIDFORMAT
  1
GRIDFORMAT_BEGIN
 90
        0
 91
        1
 62
     0
 92
       -2
340
0
 93
        0
 40
0.045
309
GRIDFORMAT_END
309
TABLEFORMAT_END
  1
CELLSTYLE_BEGIN
 90
        3
 91
        2
300
_DATA
309
CELLSTYLE_END
  0
XRECORD
  5
531
102
{ACAD_REACTORS
330
104
102
}
330
104
100
AcDbXrecord
280
     1
102
ACAD_ROUNDTRIP_PRE2007_TABLESTYLE
 90
      512
 91
        0
  1

 92
      512
 93
        0
  2

 94
      512
 95
        0
  3

  0
ENDSEC
  0
EOF
